***Уважаемые пользователи и гости !!! Сайт переехал на новый домен Torrents-club.info. Просьба изменить ваши закладки! ***
 
[ Сегодня идет свободное скачивание без начисления Download ]


Статистика раздачи
Нет
 
   
 
 
 
 
2012 / 2012 (2009) [4K, HEVC, HDR / Blu-Ray Remux] (2160p) Год выпуска: 2009
Жанр: Фантастика, катастрофа, боевик, триллер, драма
Выпущено: США, Centropolis Entertainment, Farewell Productions, Sony Pictures Entertainment (SPE)
Режиссер: Роланд Эммерих
Продолжительность: 02:37:49
Перевод: Дублированный
Субтитры: Русские
Возраст 16+

В ролях
: Джон Кьюсак, Вуди Харрельсон, Тэнди Ньютон, Чиветел Эджиофор, Златко Бурич, Дэнни Гловер, Аманда Пит, Оливер Плэтт, Том МакКарти, Генри О, Рон Селмур, Райан МакДональд, Патрик Бошо, Лиам Джеймс

О фильме:
Согласно календарю индейцев Майя, в 2012 году планеты солнечной системы окажутся на одной линии друг с другом, что приведет к глобальным природным катаклизмам: сильнейшие землетрясения, цунами и извержения вулканов превратят страны и целые континенты в руины. Недавно ученые подтвердили, что этот миф может стать реальностью.
2012 (2009) — русский трейлер
Техданные
Качество: Blu-Ray Remux (2160p)
Видео: MPEG-H HEVC, 49.3 Мбит/с, 3840x2160, 10 бит
Аудио: Русский (TrueHD+Atmos, 8 ch, 4727 Кбит/с), английский (TrueHD+Atmos, 8 ch, 4860 Кбит/с)

MediaInfo:

Уникальный идентификатор                 : 125237321378760450596609976448833578227 (0x5E37D4AB5D67753DDB7DE39D042464F3)
Полное имя                               : D:\GoodMovies\Dolby Atmos\2012.2009.UHD.ATMOS.RUSATMOS.mkv
Формат                                   : Matroska
Версия формата                           : Version 4 / Version 2
Размер файла                             : 65,1 Гбайт
Продолжительность                        : 2 ч. 37 м.
Режим общего битрейта                    : Переменный
Общий поток                              : 59,1 Мбит/сек
Название фильма                          : 2012 – [RUSATMOS]
Дата кодирования                         : UTC 2022-04-19 17:50:37
Программа кодирования                    : mkvmerge v67.0.0 ('Under Stars') 64-bit
Библиотека кодирования                   : libebml v1.4.2 + libmatroska v1.6.4
Обложка                                  : Yes
Attachments                              : cover.jpg
Видео
Идентификатор                            : 1
ID in the original source medium         : 4113 (0x1011)
Формат                                   : HEVC
Формат/Информация                        : High Efficiency Video Coding
Профиль формата                          : Main 10@L5.1@High
HDR format                               : SMPTE ST 2086, HDR10 compatible
Идентификатор кодека                     : V_MPEGH/ISO/HEVC
Продолжительность                        : 2 ч. 37 м.
Битрейт                                  : 49,3 Мбит/сек
Ширина                                   : 3 840 пикселей
Высота                                   : 2 160 пикселей
Соотношение сторон                       : 16:9
Режим частоты кадров                     : Постоянный
Частота кадров                           : 23,976 (24000/1001) кадра/сек
Цветовое пространство                    : YUV
Субдискретизация насыщенности            : 4:2:0 (Type 2)
Битовая глубина                          : 10 бит
Бит/(Пиксели*Кадры)                      : 0.248
Размер потока                            : 54,4 Гбайт (83%)
Язык                                     : English
Default                                  : Да
Forced                                   : Нет
Цветовой диапазон                        : Limited
Основные цвета                           : BT.2020
Характеристики трансфера                 : PQ
Коэффициенты матрицы                     : BT.2020 non-constant
Mastering display color primaries        : Display P3
Mastering display luminance              : min: 0.0050 cd/m2, max: 4000 cd/m2
Maximum Content Light Level              : 4451 cd/m2
Maximum Frame-Average Light Level        : 514 cd/m2
Носитель оригинала                       : Blu-ray
Аудио #1
Идентификатор                            : 2
Формат                                   : MLP FBA 16-ch
Формат/Информация                        : Meridian Lossless Packing FBA with 16-channel presentation
Коммерческое название                    : Dolby TrueHD with Dolby Atmos
Идентификатор кодека                     : A_TRUEHD
Продолжительность                        : 2 ч. 37 м.
Вид битрейта                             : Переменный
Битрейт                                  : 4 727 Кбит/сек
Максимальный битрейт                     : 7 464 Кбит/сек
Каналы                                   : 8 каналов
Channel layout                           : L R C LFE Ls Rs Lb Rb
Частота                                  : 48,0 КГц
Частота кадров                           : 1 200,000 кадров/сек (40 SPF)
Метод сжатия                             : Без потерь
Размер потока                            : 5,21 Гбайт (8%)
Заголовок                                : Dub ATMOS RUSATMOS ULF
Язык                                     : Russian
Default                                  : Да
Forced                                   : Нет
Number of dynamic objects                : 11
Bed channel count                        : 1 канал
Bed channel configuration                : LFE
Аудио #2
Идентификатор                            : 3
ID in the original source medium         : 4352 (0x1100)
Формат                                   : MLP FBA 16-ch
Формат/Информация                        : Meridian Lossless Packing FBA with 16-channel presentation
Коммерческое название                    : Dolby TrueHD with Dolby Atmos
Идентификатор кодека                     : A_TRUEHD
Продолжительность                        : 2 ч. 37 м.
Вид битрейта                             : Переменный
Битрейт                                  : 4 860 Кбит/сек
Максимальный битрейт                     : 7 908 Кбит/сек
Каналы                                   : 8 каналов
Channel layout                           : L R C LFE Ls Rs Lb Rb
Частота                                  : 48,0 КГц
Частота кадров                           : 1 200,000 кадров/сек (40 SPF)
Метод сжатия                             : Без потерь
Размер потока                            : 5,36 Гбайт (8%)
Заголовок                                : Original ATMOS
Язык                                     : English
Default                                  : Нет
Forced                                   : Нет
Носитель оригинала                       : Blu-ray
Number of dynamic objects                : 11
Bed channel count                        : 1 канал
Bed channel configuration                : LFE
Текст #1
Идентификатор                            : 4
Формат                                   : UTF-8
Идентификатор кодека                     : S_TEXT/UTF8
Идентификатор кодека/Информация          : UTF-8 Plain Text
Продолжительность                        : 2 ч. 21 м.
Битрейт                                  : 6 бит/сек
Частота кадров                           : 0,017 кадр/сек
Count of elements                        : 143
Размер потока                            : 6,43 Кбайт (0%)
Заголовок                                : forced RUSATMOS
Язык                                     : Russian
Default                                  : Да
Forced                                   : Нет
Текст #2
Идентификатор                            : 5
ID in the original source medium         : 4791 (0x12B7)
Формат                                   : PGS
Идентификатор кодека                     : S_HDMV/PGS
Идентификатор кодека/Информация          : Picture based subtitle format used on BDs/HD-DVDs
Продолжительность                        : 2 ч. 36 м.
Битрейт                                  : 33,2 Кбит/сек
Частота кадров                           : 0,414 кадр/сек
Count of elements                        : 3877
Размер потока                            : 37,1 Мбайт (0%)
Заголовок                                : full UHD
Язык                                     : Russian
Default                                  : Нет
Forced                                   : Нет
Носитель оригинала                       : Blu-ray
Меню
00:00:00.000                             : en:Глава 01
00:11:55.673                             : en:Глава 02
00:21:59.192                             : en:Глава 03
00:28:48.560                             : en:Глава 04
00:34:39.035                             : en:Глава 05
00:44:49.103                             : en:Глава 06
00:55:27.615                             : en:Глава 07
01:05:10.364                             : en:Глава 08
01:16:26.248                             : en:Глава 09
01:25:03.473                             : en:Глава 10
01:36:36.290                             : en:Глава 11
01:46:48.193                             : en:Глава 12
01:56:50.753                             : en:Глава 13
02:04:54.111                             : en:Глава 14
02:16:40.984                             : en:Глава 15
02:23:22.594                             : en:Глава 16

Скриншоты

MAGNET

Открой меня

magnet:?xt=urn:btih:8CC3056D2AB7A4023F370841CE900E9908DEDF6B&dn=2012.2009.UHD.ATMOS.RUSATMOS.mkv&tr=http%3a%2f%2ftr3.tor4me.info%2fann%3fuk%3dF5E20kt2HF&tr=http%3a%2f%2ftr3.tor2me.info%2fann%3fuk%3dF5E20kt2HF&tr=http%3a%2f%2ftr3.torrent4me.com%2fann%3fuk%3dF5E20kt2HF&tr=http%3a%2f%2fretracker.local%2fannounce&tr=wss%3a%2f%2fwstracker.online&tr=http%3a%2f%2fxbt.setitagila.ru%3a2710%2fannounce

[Цитировать]



Показать сообщения:    

Текущее время: 14-Июн 14:08

Часовой пояс: UTC + 6


Вы не можете начинать темы
Вы не можете отвечать на сообщения
Вы не можете редактировать свои сообщения
Вы не можете удалять свои сообщения
Вы не можете голосовать в опросах
Вы не можете прикреплять файлы к сообщениям
Вы не можете скачивать файлы

!ВНИМАНИЕ!
Сайт не предоставляет электронные версии произведений, а занимается лишь коллекционированием и каталогизацией ссылок, присылаемых и публикуемых на форуме нашими читателями. Если вы являетесь правообладателем какого-либо представленного материала и не желаете, чтобы ссылка на него находилась в нашем каталоге, свяжитесь с нами, и мы незамедлительно удалим ее. Файлы для обмена на трекере предоставлены пользователями сайта, и администрация не несет ответственности за их содержание. Просьба не заливать файлы, защищенные авторскими правами, а также файлы нелегального содержания!