***Уважаемые пользователи и гости !!! Сайт переехал на новый домен Torrents-club.info. Просьба изменить ваши закладки! ***
 
[ Сегодня идет свободное скачивание без начисления Download ]


Статистика раздачи
Скачал: [ 2 ]
 
   
 
 
 
 
Спецслужба: Сигнал тревоги Информация о фильме
Название: Спецслужба: Сигнал тревоги
Оригинальное название: SAS: Red Notice
Год выхода: 2021
Жанр: Боевик, триллер
Режиссер: Магнус Мартенс
В ролях: Сэм Хьюэн, Ханна Джон-Кэймен, Руби Роуз, Энди Серкис, Том Хоппер, Овайн Йомэн, Том Уилкинсон, Рэй Пантаки, Сара Винтер, Джин Лу, Ноэль Кларк
О фильме:
Хорошо вооруженная группа террористов захватывает поезд под Ла-Маншем. И теперь 400 испуганных пассажиров становятся козырем в требованиях предъявляемых местному правительству.
Снято по мотивам бестселлера Энди Макнаба, бывшего военного специальной авиадесантной службы Великобритании (SAS - Special Air Service), считающейся образцом для подразделений спецназа. Там высокопрофессиональные бойцы знают, как проводить антитеррористические операции и спасать заложников.

Страна: Великобритания, Венгрия, Нидерланды, Швейцария
Студия: Creativity Capital, Hero Squared, Parabolic Pictures Inc., Vertigo Films
Продолжительность: 02:03:46
Перевод : Дублированный (Невафильм)
Cубтитры: Русские (Forced, Full)
Файл
Формат: Matroska
Качество: BDRip-AVC [SAS.Red.Notice.2021.BDRemux.1080p.pk]
Видео: 960x400 at 23.976 fps, x264@L4.1, ~1487 kbps, 0.162 bpp
Аудио: AC3, 2 ch, ~192 kbps - | Русский | -
Формат субтитров: softsub (SRT)

M/I

x264 [info]: frame I:1281 Avg QP:15.08 size: 53405
x264 [info]: frame P:41170 Avg QP:18.86 size: 16679
x264 [info]: frame B:135609 Avg QP:21.12 size: 4543
x264 [info]: consecutive B-frames: 3.1% 3.7% 11.4% 19.4% 15.1% 29.0% 9.1% 6.8% 1.8% 0.2% 0.2% 0.0% 0.1% 0.1% 0.2%
General
Unique ID : 15721649518708473130223435871205246476 (0xBD3E12ABBFD499BB119C3F5FFACC60C)
Complete name : I:Спецслужба-Сигнал тревоги.(2021).BDRip-AVC.[-=DoMiNo=-].mkv
Format : Matroska
Format version : Version 4
File size : 1.44 GiB
Duration : 2 h 3 min
Overall bit rate : 1 671 kb/s
Movie name : Спецслужба-Сигнал тревоги.(2021).BDRip-AVC.[-=DoMiNo=-]
Encoded date : UTC 2021-09-05 11:55:08
Writing application : mkvmerge v61.0.0 ('So') 64-bit
Writing library : libebml v1.4.2 + libmatroska v1.6.4
Cover : Yes
Attachments : Cover.jpg / Cover 2.jpg
Video
ID : 1
Format : AVC
Format/Info : Advanced Video Codec
Format profile : High@L4.1
Format settings : CABAC / 15 Ref Frames
Format settings, CABAC : Yes
Format settings, Reference : 15 frames
Codec ID : V_MPEG4/ISO/AVC
Duration : 2 h 3 min
Bit rate : 1 487 kb/s
Width : 960 pixels
Height : 400 pixels
Display aspect ratio : 2.40:1
Frame rate mode : Constant
Frame rate : 23.976 (24000/1001) FPS
Color space : YUV
Chroma subsampling : 4:2:0
Bit depth : 8 bits
Scan type : Progressive
Bits/(Pixel*Frame) : 0.162
Stream size : 1.28 GiB (88%)
Title : -=DoMiNo=-
Writing library : x264 core 164 r3065+55M 280faca t_mod_New [(8 & 10)-bit@all X86_64]
Encoding settings : cabac=1 / ref=15 / deblock=1:-3:-2 / analyse=0x3:0x133 / me=umh / subme=11 / psy=1 / fade_compensate=0.00 / psy_rd=1.00:0.05 / mixed_ref=1 / me_range=32 / chroma_me=1 / trellis=2 / 8x8dct=1 / cqm=0 / deadzone=21,11 / fast_pskip=0 / chroma_qp_offset=-3 / threads=24 / lookahead_threads=3 / sliced_threads=0 / nr=0 / decimate=0 / interlaced=0 / bluray_compat=0 / constrained_intra=0 / fgo=0 / bframes=14 / b_pyramid=2 / b_adapt=2 / b_bias=0 / direct=3 / weightb=1 / open_gop=0 / weightp=2 / keyint=240 / keyint_min=23 / scenecut=40 / intra_refresh=0 / rc_lookahead=60 / rc=2pass / mbtree=0 / bitrate=1487 / ratetol=1.0 / qcomp=0.75 / qpmin=0:0:0 / qpmax=69:69:69 / qpstep=4 / cplxblur=20.0 / qblur=0.5 / vbv_maxrate=50000 / vbv_bufsize=62500 / nal_hrd=none / filler=0 / ip_ratio=1.40 / pb_ratio=1.30 / aq=3:0.80 / aq-sensitivity=10.00 / aq-factor=1.00:1.00:1.00 / aq2=0 / aq3=0
Language : English
Default : Yes
Forced : No
Audio
ID : 2
Format : AC-3
Format/Info : Audio Coding 3
Commercial name : Dolby Digital
Codec ID : A_AC3
Duration : 2 h 3 min
Bit rate mode : Constant
Bit rate : 192 kb/s
Channel(s) : 2 channels
Channel layout : L R
Sampling rate : 48.0 kHz
Frame rate : 31.250 FPS (1536 SPF)
Compression mode : Lossy
Stream size : 170 MiB (11%)
Title : DUB
Language : Russian
Service kind : Complete Main
Default : Yes
Forced : No
Text #1
ID : 3
Format : UTF-8
Codec ID : S_TEXT/UTF8
Codec ID/Info : UTF-8 Plain Text
Duration : 2 h 1 min
Bit rate : 3 b/s
Count of elements : 76
Stream size : 3.18 KiB (0%)
Title : Forced
Language : Russian
Default : Yes
Forced : No
Text #2
ID : 4
Format : UTF-8
Codec ID : S_TEXT/UTF8
Codec ID/Info : UTF-8 Plain Text
Duration : 2 h 2 min
Bit rate : 74 b/s
Count of elements : 1629
Stream size : 66.7 KiB (0%)
Language : Russian
Default : No
Forced : No
Menu
00:00:00.000 : Chapter 01
00:06:55.164 : Chapter 02
00:18:20.891 : Chapter 03
00:30:30.995 : Chapter 04
00:39:43.506 : Chapter 05
00:50:10.465 : Chapter 06
01:00:45.350 : Chapter 07
01:11:57.688 : Chapter 08
01:21:57.078 : Chapter 09
01:34:29.163 : Chapter 10
01:49:21.555 : Chapter 11
01:58:25.431 : Chapter 12

Скриншоты

[Цитировать]



Показать сообщения:    

Текущее время: 25-Май 10:49

Часовой пояс: UTC + 6


Вы не можете начинать темы
Вы не можете отвечать на сообщения
Вы не можете редактировать свои сообщения
Вы не можете удалять свои сообщения
Вы не можете голосовать в опросах
Вы не можете прикреплять файлы к сообщениям
Вы не можете скачивать файлы

!ВНИМАНИЕ!
Сайт не предоставляет электронные версии произведений, а занимается лишь коллекционированием и каталогизацией ссылок, присылаемых и публикуемых на форуме нашими читателями. Если вы являетесь правообладателем какого-либо представленного материала и не желаете, чтобы ссылка на него находилась в нашем каталоге, свяжитесь с нами, и мы незамедлительно удалим ее. Файлы для обмена на трекере предоставлены пользователями сайта, и администрация не несет ответственности за их содержание. Просьба не заливать файлы, защищенные авторскими правами, а также файлы нелегального содержания!