***Уважаемые пользователи и гости !!! Сайт переехал на новый домен Torrents-club.info. Просьба изменить ваши закладки! ***
 
[ Сегодня идет свободное скачивание без начисления Download ]


Статистика раздачи
Нет
 
   
 
 
 
 
Черная вдова. Укус смерти / Sting Год выпуска: 2024
Выпущено: Австралия, США / Align, Pictures in Paradise, See Pictures
Жанр: ужасы
Режиссер: Кия Роуч-Тернер / Kiah Roache-Turner
В ролях: Жермен Фаулер, Райан Корр, Алила Браун, Нони Хейзлхерст, Робин Невин, Пенелопа Митчелл, Дэнни Ким, Сильвия Коллока, Тони Джей Блэк, Роулэнд Холмс
О фильме: Холодной ненастной ночью в комнату юной Шарлотты через окно падает необычное яйцо, из которого вылупляется странный паук. Зловещее создание становится тайным другом девочки, и ее не настораживает, что паук растет с невообразимой скоростью. Но когда начинают пропадать сначала питомцы соседей, а потом и они сами, Шарлотта понимает, что ее семья и другие выжившие попали в ловушку: за ними охотится гигантский паук, жаждущий человеческой плоти.

Продолжительность: 01:31:32
Перевод: Профессиональный (полное дублирование) | Кириллица | TS
Субтитры: Английские
Формат: MKV
Качество: WEB-DLRip-AVC
Видео: MPEG-4 AVC, 1937 Кбит/с, 1024x554, (1,85:1)
Аудио #1: AC3, 2 ch, 192 Кбит/с | RUS |
Аудио #2: AC3, 6 ch, 448 Кбит/с | ENG |

MediaInfo

Общее
Уникальный идентификатор : 297582098645091802962228773396648026984 (0xDFE03A3B6F8E8B6239574114EB4BE368)
Полное имя : D:TorrentsSting.2024.WEB-DLRip-AVC_by_JNS82.mkv
Формат : Matroska
Версия формата : Version 4
Размер файла : 1,65 Гбайт
Продолжительность : 1 ч. 31 м.
Общий поток : 2 575 Кбит/сек
Название фильма : Sting.2024.WEB-DLRip-AVC_by_JNS82
Дата кодирования : UTC 2024-05-14 15:47:29
Программа кодирования : mkvmerge v79.0 ('Funeral Pyres') 64-bit
Библиотека кодирования : libebml v1.4.4 + libmatroska v1.7.1
Видео
Идентификатор : 1
Формат : AVC
Формат/Информация : Advanced Video Codec
Профиль формата : High@L4.1
Настройки формата : CABAC / 12 Ref Frames
Параметр CABAC формата : Да
Параметр RefFrames формата : 12 кадров
Идентификатор кодека : V_MPEG4/ISO/AVC
Продолжительность : 1 ч. 31 м.
Битрейт : 1 937 Кбит/сек
Ширина : 1 024 пикселя
Высота : 554 пикселя
Соотношение сторон : 1,85:1
Режим частоты кадров : Постоянный
Частота кадров : 24,000 кадра/сек
Цветовое пространство : YUV
Субдискретизация насыщенности : 4:2:0
Битовая глубина : 8 бит
Тип развёртки : Прогрессивная
Бит/(Пиксели*Кадры) : 0.142
Размер потока : 1,24 Гбайт (75%)
Библиотека кодирования : x264 core 164 r3156+57M NewTeam t_mod_New [(8 & 10)-bit@all X86_64]
Настройки программы : cabac=1 / ref=12 / deblock=1:-3:-2 / analyse=0x3:0x113 / me=umh / subme=10 / psy=1 / fade_compensate=0.00 / psy_rd=1.01:0.05 / mixed_ref=1 / me_range=32 / chroma_me=1 / trellis=2 / 8x8dct=1 / cqm=0 / deadzone=21,11 / fast_pskip=0 / chroma_qp_offset=-3 / threads=17 / lookahead_threads=4 / sliced_threads=0 / nr=0 / decimate=0 / interlaced=0 / bluray_compat=0 / constrained_intra=0 / fgo=0 / bframes=10 / b_pyramid=2 / b_adapt=2 / b_bias=0 / direct=3 / weightb=1 / open_gop=0 / weightp=2 / keyint=240 / keyint_min=23 / scenecut=40 / intra_refresh=0 / rc_lookahead=60 / rc=2pass / mbtree=0 / bitrate=1937 / ratetol=1.0 / qcomp=0.60 / qpmin=0:0:0 / qpmax=69:69:69 / qpstep=5 / cplxblur=20.0 / qblur=0.5 / vbv_maxrate=50000 / vbv_bufsize=62500 / nal_hrd=none / filler=0 / ip_ratio=1.40 / pb_ratio=1.30 / aq=1:1.00 / aq-sensitivity=10.00 / aq-factor=1.00:1.00:1.00 / aq2=0 / aq3=0
Язык : English
Default : Да
Forced : Нет
Цветовой диапазон : Limited
Коэффициенты матрицы : BT.709
Аудио #1
Идентификатор : 2
Формат : AC-3
Формат/Информация : Audio Coding 3
Коммерческое название : Dolby Digital
Идентификатор кодека : A_AC3
Продолжительность : 1 ч. 31 м.
Вид битрейта : Постоянный
Битрейт : 192 Кбит/сек
Каналы : 2 канала
Channel layout : L R
Частота : 48,0 КГц
Частота кадров : 31,250 кадров/сек (1536 SPF)
Метод сжатия : С потерями
Размер потока : 126 Мбайт (7%)
Заголовок : DUB - Кириллица | TS
Язык : Russian
Service kind : Complete Main
Default : Да
Forced : Нет
Аудио #2
Идентификатор : 3
Формат : AC-3
Формат/Информация : Audio Coding 3
Коммерческое название : Dolby Digital
Идентификатор кодека : A_AC3
Продолжительность : 1 ч. 31 м.
Вид битрейта : Постоянный
Битрейт : 448 Кбит/сек
Каналы : 6 каналов
Channel layout : L R C LFE Ls Rs
Частота : 48,0 КГц
Частота кадров : 31,250 кадров/сек (1536 SPF)
Метод сжатия : С потерями
Размер потока : 293 Мбайт (17%)
Заголовок : Original
Язык : English
Service kind : Complete Main
Default : Нет
Forced : Нет
Текст
Идентификатор : 4
Формат : UTF-8
Идентификатор кодека : S_TEXT/UTF8
Идентификатор кодека/Информация : UTF-8 Plain Text
Продолжительность : 1 ч. 26 м.
Битрейт : 35 бит/сек
Count of elements : 801
Размер потока : 22,7 Кбайт (0%)
Язык : English
Default : Нет
Forced : Нет
Меню
00:00:00.000 : en:Scene 01
01:31:27.000 : en:End Credits

Скриншоты:

[Цитировать]



Показать сообщения:    

Текущее время: 25-Май 10:03

Часовой пояс: UTC + 6


Вы не можете начинать темы
Вы не можете отвечать на сообщения
Вы не можете редактировать свои сообщения
Вы не можете удалять свои сообщения
Вы не можете голосовать в опросах
Вы не можете прикреплять файлы к сообщениям
Вы не можете скачивать файлы

!ВНИМАНИЕ!
Сайт не предоставляет электронные версии произведений, а занимается лишь коллекционированием и каталогизацией ссылок, присылаемых и публикуемых на форуме нашими читателями. Если вы являетесь правообладателем какого-либо представленного материала и не желаете, чтобы ссылка на него находилась в нашем каталоге, свяжитесь с нами, и мы незамедлительно удалим ее. Файлы для обмена на трекере предоставлены пользователями сайта, и администрация не несет ответственности за их содержание. Просьба не заливать файлы, защищенные авторскими правами, а также файлы нелегального содержания!