***Уважаемые пользователи и гости !!! Сайт переехал на новый домен Torrents-club.info. Просьба изменить ваши закладки! ***
 
[ Сегодня идет свободное скачивание без начисления Download ]


Статистика раздачи
Нет
 
   
 
 
 
 
Слепой / The Blind Год выпуска: 2023
Выпущено: США / GND Media Group, Stacey Films, Tread Lively
Жанр: драма
Режиссер: Эндрю Хайатт / Andrew Hyatt
В ролях: Арон фон Андриан, Мэттью Эрик Уайт, Ронан Кэрролл, Амелия Ив, Бриэль Робиллард, Скарлетт Абинанте, Коннор Тиллман, Джон Алес, Клинт Джеймс, Керри Кнуппе
О фильме: Действие фильма разворачивается в 1960-е годы в районе глухих болот штата Луизиана и рассказывает ранее не известную историю Фила Робертсона и его жены Кей, известных по реалити-шоу «Утиная династия». Когда Фил и Кей создают семью, не все идет гладко: душевные демоны и позор прошлого Фила терзают его и ставят под угрозу благополучие брака Робертсонов. В конечном итоге Фил находит искупление в неожиданном месте.

Продолжительность: 01:49:37
Перевод: Профессиональный (многоголосый, закадровый) | Официальный
Субтитры: Русские (forced, full), английские [отдельно]
Формат: AVI
Качество: BDRip | The.Blind.2023.1080p.BluRay.REMUX.AVC.DTS-HD.MA.5.1-THUGLiNE
Видео: 720x304 (2.35:1), 23.976 fps, XviD MPEG-4 ~ 1516 kbps avg, 0.289 bit/pixel, build 73
Аудио: 48 kHz, AC3 Dolby Digital, 3/2 (L,C,R,l,r) + LFE ch, ~ 384 kbps | RUS |

MediaInfo

Общее
Полное имя : D:TorrentsThe.Blind.2023.BDRip_от New-Team_by_JNS82The.Blind.2023.BDRip_от New-Team_by_JNS82.avi
Формат : AVI
Формат/Информация : Audio Video Interleave
Размер файла : 1,46 Гбайт
Продолжительность : 1 ч. 49 м.
Общий поток : 1 910 Кбит/сек
Программа кодирования : VirtualDubMod 1.5.10.2 (build 2540/release)
Библиотека кодирования : VirtualDubMod build 2540/release
Видео
Идентификатор : 0
Формат : MPEG-4 Visual
Профиль формата : Advanced Simple@L5
Настройки формата : BVOP1 / Custom Matrix
Параметр BVOP формата : 1
Параметр QPel формата : Нет
Параметр GMC формата : Без точки перехода
Параметр матрицы формата : Выборочная
Идентификатор кодека : XVID
Идентификатор кодека/Подсказка : XviD
Продолжительность : 1 ч. 49 м.
Битрейт : 1 516 Кбит/сек
Ширина : 720 пикселей
Высота : 304 пикселя
Соотношение сторон : 2,35:1
Частота кадров : 23,976 (24000/1001) кадра/сек
Цветовое пространство : YUV
Субдискретизация насыщенности : 4:2:0
Битовая глубина : 8 бит
Тип развёртки : Прогрессивная
Метод сжатия : С потерями
Бит/(Пиксели*Кадры) : 0.289
Размер потока : 1,16 Гбайт (79%)
Библиотека кодирования : XviD 73
Аудио
Идентификатор : 1
Формат : AC-3
Формат/Информация : Audio Coding 3
Коммерческое название : Dolby Digital
Идентификатор кодека : 2000
Продолжительность : 1 ч. 49 м.
Вид битрейта : Постоянный
Битрейт : 384 Кбит/сек
Каналы : 6 каналов
Channel layout : L R C LFE Ls Rs
Частота : 48,0 КГц
Частота кадров : 31,250 кадров/сек (1536 SPF)
Метод сжатия : С потерями
Размер потока : 301 Мбайт (20%)
Выравнивание : Разделение по промежуткам
Продолжительность промежутка : 42 мс. (1,00 видеокадр)
Время предзагрузки промежутка : 500 мс.
Service kind : Complete Main

Скриншоты:

[Цитировать]



Показать сообщения:    

Текущее время: 25-Май 11:58

Часовой пояс: UTC + 6


Вы не можете начинать темы
Вы не можете отвечать на сообщения
Вы не можете редактировать свои сообщения
Вы не можете удалять свои сообщения
Вы не можете голосовать в опросах
Вы не можете прикреплять файлы к сообщениям
Вы не можете скачивать файлы

!ВНИМАНИЕ!
Сайт не предоставляет электронные версии произведений, а занимается лишь коллекционированием и каталогизацией ссылок, присылаемых и публикуемых на форуме нашими читателями. Если вы являетесь правообладателем какого-либо представленного материала и не желаете, чтобы ссылка на него находилась в нашем каталоге, свяжитесь с нами, и мы незамедлительно удалим ее. Файлы для обмена на трекере предоставлены пользователями сайта, и администрация не несет ответственности за их содержание. Просьба не заливать файлы, защищенные авторскими правами, а также файлы нелегального содержания!