***Уважаемые пользователи и гости !!! Сайт переехал на новый домен Torrents-club.info. Просьба изменить ваши закладки! ***
 
[ Сегодня идет свободное скачивание без начисления Download ]


Статистика раздачи
Нет
 
   
 
 
 
 
Телохранитель на фрилансе / Freelance -
Год выхода: 2023
Страна: США
Студия: AGC Studios, Endurance Media, Sentient Entertainment, Sentient Pictures, Signature Films, Wideangle Films, Yorkshire Film Services II
Жанр: Боевик, комедия
Продолжительность: 01:48:34
Перевод: Профессиональный (полное дублирование) | Мосфильм-Мастер
Перевод: Авторский (одноголосый закадровый) | М. Яроцкий | 18+-Режиссер:
Пьер Морель-В ролях:
Джон Сина, Элисон Бри, Элис Ив, Кристиан Слэйтер, Мартон Чокаш, Хуан Пабло Раба, Фиона Хорси, Молли Макканн, Джулианна Александр, Дэниэл Торо-Описание:
Бывший спецназовец променял полную экшна жизнь на серые будни в офисе. С неохотой он все-таки соглашается на простую, но высокооплачиваемую подработку — сопровождать журналистку в командировке, пока та берет интервью у обаятельного диктатора. Однако на месте они внезапно попадают в эпицентр полномасштабного переворота. Теперь, чтобы спасти всех, телохранителю на фрилансе пригодятся все его боевые навыки, ведь предоплата уже внесена.- -Качество: BDRip-AVC
Формат: MKV
Видео: MPEG-4 AVC, 1974 Кбит/с, 1024x428
Аудио #01: 48 kHz, AC3, 5.1, 448 Kbps | Дублированный | Мосфильм-Мастер | RUS |
Аудио #02: 48 kHz, AC3, 5.1, 448 Kbps | Авторский | М. Яроцкий | RUS |
Аудио #03: 48 kHz, DTS-HD MA, 5.1, 1966 Kbps | Оригинал | ENG |
Субтитры: Русские (Forced, full), английские-

Дополнительно:

*** В дубляже отсутствует перевод с 31:34 по 32:44 минуту, сцена переведена русскими форсированными субтитрами.
*** Из русского хардсаба (WEB-DL) сделаны русские форсированные субтитры

Скриншоты

MediaInfo

Общее
Уникальный идентификатор : 220925407591071670622881601183605551201 (0xA634AF904C3DF9875E488EC961177061)
Полное имя : D:TorrentsFreelance.2023.BDRip-AVC_от New-Team_JNS82.mkv
Формат : Matroska
Версия формата : Version 4
Размер файла : 2,52 Гбайт
Продолжительность : 1 ч. 48 м.
Общий поток : 3 318 Кбит/сек
Название фильма : Freelance.2023.BDRip-AVC_от New-Team_JNS82
Дата кодирования : UTC 2024-01-24 19:46:47
Программа кодирования : mkvmerge v79.0 ('Funeral Pyres') 64-bit
Библиотека кодирования : libebml v1.4.4 + libmatroska v1.7.1
Видео
Идентификатор : 1
Формат : AVC
Формат/Информация : Advanced Video Codec
Профиль формата : High@L4.1
Настройки формата : CABAC / 12 Ref Frames
Параметр CABAC формата : Да
Параметр RefFrames формата : 12 кадров
Идентификатор кодека : V_MPEG4/ISO/AVC
Продолжительность : 1 ч. 48 м.
Битрейт : 1 974 Кбит/сек
Ширина : 1 024 пикселя
Высота : 428 пикселей
Соотношение сторон : 2,40:1
Режим частоты кадров : Постоянный
Частота кадров : 23,976 (24000/1001) кадра/сек
Цветовое пространство : YUV
Субдискретизация насыщенности : 4:2:0
Битовая глубина : 8 бит
Тип развёртки : Прогрессивная
Бит/(Пиксели*Кадры) : 0.188
Размер потока : 1,50 Гбайт (59%)
Библиотека кодирования : x264 core 164 r3156+57M NewTeam t_mod_New [(8 & 10)-bit@all X86_64]
Настройки программы : cabac=1 / ref=12 / deblock=1:-3:-3 / analyse=0x3:0x133 / me=umh / subme=10 / psy=1 / fade_compensate=0.00 / psy_rd=1.03:0.05 / mixed_ref=1 / me_range=32 / chroma_me=1 / trellis=2 / 8x8dct=1 / cqm=0 / deadzone=21,11 / fast_pskip=0 / chroma_qp_offset=-3 / threads=13 / lookahead_threads=3 / sliced_threads=0 / nr=0 / decimate=0 / interlaced=0 / bluray_compat=0 / constrained_intra=0 / fgo=0 / bframes=10 / b_pyramid=2 / b_adapt=2 / b_bias=0 / direct=3 / weightb=1 / open_gop=0 / weightp=2 / keyint=250 / keyint_min=23 / scenecut=40 / intra_refresh=0 / rc_lookahead=40 / rc=2pass / mbtree=0 / bitrate=1974 / ratetol=1.0 / qcomp=0.60 / qpmin=0:0:0 / qpmax=69:69:69 / qpstep=4 / cplxblur=20.0 / qblur=0.5 / vbv_maxrate=50000 / vbv_bufsize=62500 / nal_hrd=none / filler=0 / ip_ratio=1.40 / pb_ratio=1.30 / aq=1:1.00 / aq-sensitivity=10.00 / aq-factor=1.00:1.00:1.00 / aq2=0 / aq3=0
Язык : English
Default : Да
Forced : Нет
Аудио #1
Идентификатор : 2
Формат : AC-3
Формат/Информация : Audio Coding 3
Коммерческое название : Dolby Digital
Идентификатор кодека : A_AC3
Продолжительность : 1 ч. 48 м.
Вид битрейта : Постоянный
Битрейт : 448 Кбит/сек
Каналы : 6 каналов
Channel layout : L R C LFE Ls Rs
Частота : 48,0 КГц
Частота кадров : 31,250 кадров/сек (1536 SPF)
Метод сжатия : С потерями
Размер потока : 348 Мбайт (13%)
Заголовок : DUB + AVO
Язык : Russian
Service kind : Complete Main
Default : Да
Forced : Нет
Аудио #2
Идентификатор : 3
Формат : AC-3
Формат/Информация : Audio Coding 3
Коммерческое название : Dolby Digital
Идентификатор кодека : A_AC3
Продолжительность : 1 ч. 48 м.
Вид битрейта : Постоянный
Битрейт : 448 Кбит/сек
Каналы : 6 каналов
Channel layout : L R C LFE Ls Rs
Частота : 48,0 КГц
Частота кадров : 31,250 кадров/сек (1536 SPF)
Метод сжатия : С потерями
Размер потока : 348 Мбайт (13%)
Заголовок : AVO - Яроцкий | 18+
Язык : Russian
Service kind : Complete Main
Default : Нет
Forced : Нет
Аудио #3
Идентификатор : 4
Формат : AC-3
Формат/Информация : Audio Coding 3
Коммерческое название : Dolby Digital
Идентификатор кодека : A_AC3
Продолжительность : 1 ч. 48 м.
Вид битрейта : Постоянный
Битрейт : 448 Кбит/сек
Каналы : 6 каналов
Channel layout : L R C LFE Ls Rs
Частота : 48,0 КГц
Частота кадров : 31,250 кадров/сек (1536 SPF)
Метод сжатия : С потерями
Размер потока : 348 Мбайт (13%)
Заголовок : Original
Язык : English
Service kind : Complete Main
Default : Нет
Forced : Нет
Текст #1
Идентификатор : 5
Формат : UTF-8
Идентификатор кодека : S_TEXT/UTF8
Идентификатор кодека/Информация : UTF-8 Plain Text
Продолжительность : 1 ч. 26 м.
Битрейт : 3 бит/сек
Count of elements : 31
Размер потока : 2,54 Кбайт (0%)
Заголовок : [forced]
Язык : Russian
Default : Да
Forced : Нет
Текст #2
Идентификатор : 6
Формат : UTF-8
Идентификатор кодека : S_TEXT/UTF8
Идентификатор кодека/Информация : UTF-8 Plain Text
Продолжительность : 1 ч. 43 м.
Битрейт : 90 бит/сек
Count of elements : 1427
Размер потока : 68,5 Кбайт (0%)
Заголовок : [full]
Язык : Russian
Default : Нет
Forced : Нет
Текст #3
Идентификатор : 7
Формат : UTF-8
Идентификатор кодека : S_TEXT/UTF8
Идентификатор кодека/Информация : UTF-8 Plain Text
Продолжительность : 1 ч. 43 м.
Битрейт : 60 бит/сек
Count of elements : 1694
Размер потока : 45,6 Кбайт (0%)
Заголовок : [SDH]
Язык : English
Default : Нет
Forced : Нет
Меню
00:00:00.000 : :Chapter 01
00:09:28.567 : :Chapter 02
00:20:52.416 : :Chapter 03
00:29:16.712 : :Chapter 04
00:38:51.829 : :Chapter 05
00:49:16.954 : :Chapter 06
00:55:45.842 : :Chapter 07
01:04:29.407 : :Chapter 08
01:13:22.648 : :Chapter 09
01:22:14.637 : :Chapter 10
01:31:53.423 : :Chapter 11
01:43:10.016 : :Chapter 12
01:48:33.547 : :Chapter 13

[Цитировать]



Показать сообщения:    

Текущее время: 25-Май 10:37

Часовой пояс: UTC + 6


Вы не можете начинать темы
Вы не можете отвечать на сообщения
Вы не можете редактировать свои сообщения
Вы не можете удалять свои сообщения
Вы не можете голосовать в опросах
Вы не можете прикреплять файлы к сообщениям
Вы не можете скачивать файлы

!ВНИМАНИЕ!
Сайт не предоставляет электронные версии произведений, а занимается лишь коллекционированием и каталогизацией ссылок, присылаемых и публикуемых на форуме нашими читателями. Если вы являетесь правообладателем какого-либо представленного материала и не желаете, чтобы ссылка на него находилась в нашем каталоге, свяжитесь с нами, и мы незамедлительно удалим ее. Файлы для обмена на трекере предоставлены пользователями сайта, и администрация не несет ответственности за их содержание. Просьба не заливать файлы, защищенные авторскими правами, а также файлы нелегального содержания!