***Уважаемые пользователи и гости !!! Сайт переехал на новый домен Torrents-club.info. Просьба изменить ваши закладки! ***
 
[ Сегодня идет свободное скачивание без начисления Download ]


Статистика раздачи
Нет
 
   
 
 
 
 
Телохранитель на фрилансе / Freelance -
Год выхода: 2023
Страна: США
Студия: AGC Studios, Endurance Media, Sentient Entertainment, Sentient Pictures, Signature Films, Wideangle Films, Yorkshire Film Services II
Жанр: Боевик, комедия
Продолжительность: 01:48:34
Перевод: Профессиональный (полное дублирование) | Мосфильм-Мастер |-Режиссер:
Пьер Морель-В ролях:
Джон Сина, Элисон Бри, Элис Ив, Кристиан Слэйтер, Мартон Чокаш, Хуан Пабло Раба, Фиона Хорси, Молли Макканн, Джулианна Александр, Дэниэл Торо-Описание:
Бывший спецназовец променял полную экшна жизнь на серые будни в офисе. С неохотой он все-таки соглашается на простую, но высокооплачиваемую подработку — сопровождать журналистку в командировке, пока та берет интервью у обаятельного диктатора. Однако на месте они внезапно попадают в эпицентр полномасштабного переворота. Теперь, чтобы спасти всех, телохранителю на фрилансе пригодятся все его боевые навыки, ведь предоплата уже внесена.- -Качество: BDRip 720p
Формат: MKV
Видео: MPEG-4 AVC, 1280x534, 3791 Kbit/s, 23.976 fps
Аудио #01: 48 kHz, AC3, 5.1, 448 Kbps | Дублированный | Мосфильм-Мастер | RUS |
Аудио #02: 48 kHz, E-AC3, 5.1, 448 Kbps | Дублированный | Мосфильм-Мастер | RUS |
Аудио #03: 48 kHz, AC3, 5.1, 640 Kbps | Оригинал | ENG |
Субтитры: Русские (Forced, full), английские-

Дополнительно:

*** В дубляже отсутствует перевод с 31:34 по 32:44 минуту, сцена переведена русскими форсированными субтитрами.
*** Из русского хардсаба (WEB-DL) сделаны русские форсированные субтитры

Скриншоты

M/I

General
Unique ID : 260080457577466777730281746746312490654 (0xC3A9AC931E20B285472B296A8B5BFE9E)
Complete name : R:Freelance.2023.DUB.BDRip.720p.x264.seleZen.mkv
Format : Matroska
Format version : Version 4
File size : 4.04 GiB
Duration : 1 h 48 min
Overall bit rate : 5 329 kb/s
Frame rate : 23.976 FPS
Movie name : Freelance.2023.DUB.BDRip.720p.x264.seleZen
Encoded date : 2024-01-24 19:03:09 UTC
Writing application : mkvmerge v82.0 ('I'm The President') 64-bit
Writing library : libebml v1.4.5 + libmatroska v1.7.1
Cover : Yes
Attachments : cover.jpg / small_cover.jpg
Video
ID : 1
Format : AVC
Format/Info : Advanced Video Codec
Format profile : High@L4.1
Format settings : CABAC / 12 Ref Frames
Format settings, CABAC : Yes
Format settings, Reference : 12 frames
Codec ID : V_MPEG4/ISO/AVC
Duration : 1 h 48 min
Bit rate : 3 791 kb/s
Width : 1 280 pixels
Height : 534 pixels
Display aspect ratio : 2.40:1
Frame rate mode : Constant
Frame rate : 23.976 (24000/1001) FPS
Color space : YUV
Chroma subsampling : 4:2:0
Bit depth : 8 bits
Scan type : Progressive
Bits/(Pixel*Frame) : 0.231
Stream size : 2.87 GiB (71%)
Title : -=DoMiNo=-
Writing library : x264 core 164 r3173 -DoMiNo
Encoding settings : cabac=1 / ref=12 / deblock=1:-2:-2 / analyse=0x3:0x133 / me=umh / subme=10 / psy=1 / psy_rd=1.05:0.03 / mixed_ref=1 / me_range=32 / chroma_me=1 / trellis=2 / 8x8dct=1 / cqm=0 / deadzone=21,11 / fast_pskip=0 / chroma_qp_offset=-3 / threads=17 / lookahead_threads=4 / sliced_threads=0 / nr=0 / decimate=0 / interlaced=0 / bluray_compat=0 / constrained_intra=0 / bframes=10 / b_pyramid=2 / b_adapt=2 / b_bias=0 / direct=1 / weightb=1 / open_gop=0 / weightp=2 / keyint=250 / keyint_min=23 / scenecut=40 / intra_refresh=0 / rc_lookahead=60 / rc=crf / mbtree=0 / crf=16.8 / qcomp=0.60 / qpmin=0 / qpmax=69 / qpstep=4 / vbv_maxrate=50000 / vbv_bufsize=62500 / crf_max=0.0 / nal_hrd=none / filler=0 / ip_ratio=1.40 / pb_ratio=1.30 / aq=3:0.80
Language : English
Default : Yes
Forced : No
Audio #1
ID : 2
Format : AC-3
Format/Info : Audio Coding 3
Commercial name : Dolby Digital
Codec ID : A_AC3
Duration : 1 h 48 min
Bit rate mode : Constant
Bit rate : 448 kb/s
Channel(s) : 6 channels
Channel layout : L R C LFE Ls Rs
Sampling rate : 48.0 kHz
Frame rate : 31.250 FPS (1536 SPF)
Compression mode : Lossy
Stream size : 348 MiB (8%)
Title : Дублированный | Мосфильм-Мастер
Language : Russian
Service kind : Complete Main
Default : Yes
Forced : No
Audio #2
ID : 3
Format : E-AC-3
Format/Info : Enhanced AC-3
Commercial name : Dolby Digital Plus
Codec ID : A_EAC3
Duration : 1 h 48 min
Bit rate mode : Constant
Bit rate : 448 kb/s
Channel(s) : 6 channels
Channel layout : L R C LFE Ls Rs
Sampling rate : 48.0 kHz
Frame rate : 31.250 FPS (1536 SPF)
Compression mode : Lossy
Stream size : 348 MiB (8%)
Title : Дублированный | Мосфильм-Мастер
Language : Russian
Service kind : Complete Main
Default : No
Forced : No
Audio #3
ID : 4
Format : AC-3
Format/Info : Audio Coding 3
Commercial name : Dolby Digital
Codec ID : A_AC3
Duration : 1 h 48 min
Bit rate mode : Constant
Bit rate : 640 kb/s
Channel(s) : 6 channels
Channel layout : L R C LFE Ls Rs
Sampling rate : 48.0 kHz
Frame rate : 31.250 FPS (1536 SPF)
Compression mode : Lossy
Stream size : 497 MiB (12%)
Title : Original
Language : English
Service kind : Complete Main
Default : No
Forced : No
Text #1
ID : 5
Format : UTF-8
Codec ID : S_TEXT/UTF8
Codec ID/Info : UTF-8 Plain Text
Duration : 1 h 26 min
Bit rate : 3 b/s
Frame rate : 0.006 FPS
Count of elements : 31
Stream size : 2.54 KiB (0%)
Title : Forced
Language : Russian
Default : No
Forced : No
Text #2
ID : 6
Format : UTF-8
Codec ID : S_TEXT/UTF8
Codec ID/Info : UTF-8 Plain Text
Duration : 1 h 43 min
Bit rate : 90 b/s
Frame rate : 0.230 FPS
Count of elements : 1427
Stream size : 68.5 KiB (0%)
Title : Full
Language : Russian
Default : No
Forced : No
Text #3
ID : 7
Format : UTF-8
Codec ID : S_TEXT/UTF8
Codec ID/Info : UTF-8 Plain Text
Duration : 1 h 43 min
Bit rate : 60 b/s
Frame rate : 0.273 FPS
Count of elements : 1694
Stream size : 45.6 KiB (0%)
Title : Full
Language : English (US)
Default : No
Forced : No
Text #4
ID : 8
Format : UTF-8
Codec ID : S_TEXT/UTF8
Codec ID/Info : UTF-8 Plain Text
Duration : 1 h 43 min
Bit rate : 64 b/s
Frame rate : 0.300 FPS
Count of elements : 1860
Stream size : 49.0 KiB (0%)
Title : SDH
Language : English (US)
Default : No
Forced : No
Text #5
ID : 9
Format : UTF-8
Codec ID : S_TEXT/UTF8
Codec ID/Info : UTF-8 Plain Text
Duration : 1 h 15 min
Bit rate : 3 b/s
Frame rate : 0.020 FPS
Count of elements : 89
Stream size : 1.82 KiB (0%)
Title : Forced
Language : English (US)
Default : No
Forced : No
Menu
00:00:00.000 : en:Глава 01
00:09:28.568 : en:Глава 02
00:20:52.418 : en:Глава 03
00:29:16.713 : en:Глава 04
00:38:51.829 : en:Глава 05
00:49:16.954 : en:Глава 06
00:55:45.842 : en:Глава 07
01:04:29.407 : en:Глава 08
01:13:22.648 : en:Глава 09
01:22:14.638 : en:Глава 10
01:31:53.425 : en:Глава 11
01:43:10.017 : en:Глава 12

[Цитировать]



Показать сообщения:    

Текущее время: 25-Май 10:36

Часовой пояс: UTC + 6


Вы не можете начинать темы
Вы не можете отвечать на сообщения
Вы не можете редактировать свои сообщения
Вы не можете удалять свои сообщения
Вы не можете голосовать в опросах
Вы не можете прикреплять файлы к сообщениям
Вы не можете скачивать файлы

!ВНИМАНИЕ!
Сайт не предоставляет электронные версии произведений, а занимается лишь коллекционированием и каталогизацией ссылок, присылаемых и публикуемых на форуме нашими читателями. Если вы являетесь правообладателем какого-либо представленного материала и не желаете, чтобы ссылка на него находилась в нашем каталоге, свяжитесь с нами, и мы незамедлительно удалим ее. Файлы для обмена на трекере предоставлены пользователями сайта, и администрация не несет ответственности за их содержание. Просьба не заливать файлы, защищенные авторскими правами, а также файлы нелегального содержания!