***Уважаемые пользователи и гости !!! Сайт переехал на новый домен Torrents-club.info. Просьба изменить ваши закладки! ***
 
[ Сегодня идет свободное скачивание без начисления Download ]


Статистика раздачи
Нет
 
   
 
 
 
 
Единорог Тельма / Thelma the Unicorn Год выпуска: 2023
Выпущено: США, Канада / BuzzFeed Motion Pictures, Buzzfeed Studios, Matchbox Hero, Mikros Animation, Netflix Animation, Netflix Studios, Scholastic Entertainment
Жанр: мультфильм, мюзикл, фэнтези, комедия, приключения, семейный
Режиссер: Джаред Хесс / Jared Hess, Линн Ванг / Lynn Wang
В ролях: Бриттани Ховард, Уилл Форте, Джон Хидер, Даран Норрис, Дэвид Мичи, Бетси Содаро, Линн Ванг, Пэм Коутс, Мишель Джубили Гонсалес, Шондрелла Эйвери, Эктор Хименес, Гено Седжерс, Шерри Кола, Мэттью Вульф, Зак Галифианакис
О фильме: Пони, мечтающая о славе, становится известной, когда превращается в блестящего единорога. Но быть знаменитостью — непростая задача.

Продолжительность: 01:38:07
Перевод: Профессиональный (полное дублирование) | Videofilm Ltd.
Субтитры: Русские (forced, full), английские [отдельно]
Формат: AVI
Качество: WEB-DLRip
Видео: 704x384 (1.85:1), 23.976 fps, XviD MPEG-4 ~ 1678 kbps avg, 0.259 bit/pixel, build 74
Аудио: 48 kHz, AC3 Dolby Digital, 3/2 (L,C,R,l,r) + LFE ch, ~ 448 kbps | RUS |-

MediaInfo

Общее
Полное имя : D:TorrentsThelma.the.Unicorn.2024.WEB-DLRip_от New-Team_by_JNS82Thelma.the.Unicorn.2024.WEB-DLRip_от New-Team_by_JNS82.avi
Формат : AVI
Формат/Информация : Audio Video Interleave
Размер файла : 1,46 Гбайт
Продолжительность : 1 ч. 38 м.
Общий поток : 2 135 Кбит/сек
Программа кодирования : VirtualDubMod 1.5.10.2 (build 2540/release)
Библиотека кодирования : VirtualDubMod build 2540/release
Видео
Идентификатор : 0
Формат : MPEG-4 Visual
Профиль формата : Advanced Simple@L5
Настройки формата : BVOP1 / Custom Matrix
Параметр BVOP формата : 1
Параметр QPel формата : Нет
Параметр GMC формата : Без точки перехода
Параметр матрицы формата : Выборочная
Идентификатор кодека : XVID
Идентификатор кодека/Подсказка : XviD
Продолжительность : 1 ч. 38 м.
Битрейт : 1 678 Кбит/сек
Ширина : 704 пикселя
Высота : 384 пикселя
Соотношение сторон : 1,85:1
Частота кадров : 24,000 кадра/сек
Цветовое пространство : YUV
Субдискретизация насыщенности : 4:2:0
Битовая глубина : 8 бит
Тип развёртки : Прогрессивная
Метод сжатия : С потерями
Бит/(Пиксели*Кадры) : 0.259
Размер потока : 1,15 Гбайт (79%)
Библиотека кодирования : XviD 74
Аудио
Идентификатор : 1
Формат : AC-3
Формат/Информация : Audio Coding 3
Коммерческое название : Dolby Digital
Идентификатор кодека : 2000
Продолжительность : 1 ч. 38 м.
Вид битрейта : Постоянный
Битрейт : 448 Кбит/сек
Каналы : 6 каналов
Channel layout : L R C LFE Ls Rs
Частота : 48,0 КГц
Частота кадров : 31,250 кадров/сек (1536 SPF)
Метод сжатия : С потерями
Размер потока : 314 Мбайт (21%)
Выравнивание : Разделение по промежуткам
Продолжительность промежутка : 42 мс. (1,00 видеокадр)
Время предзагрузки промежутка : 500 мс.
Service kind : Complete Main

Скриншоты:

[Цитировать]



Показать сообщения:    

Текущее время: 13-Июн 10:41

Часовой пояс: UTC + 6


Вы не можете начинать темы
Вы не можете отвечать на сообщения
Вы не можете редактировать свои сообщения
Вы не можете удалять свои сообщения
Вы не можете голосовать в опросах
Вы не можете прикреплять файлы к сообщениям
Вы не можете скачивать файлы

!ВНИМАНИЕ!
Сайт не предоставляет электронные версии произведений, а занимается лишь коллекционированием и каталогизацией ссылок, присылаемых и публикуемых на форуме нашими читателями. Если вы являетесь правообладателем какого-либо представленного материала и не желаете, чтобы ссылка на него находилась в нашем каталоге, свяжитесь с нами, и мы незамедлительно удалим ее. Файлы для обмена на трекере предоставлены пользователями сайта, и администрация не несет ответственности за их содержание. Просьба не заливать файлы, защищенные авторскими правами, а также файлы нелегального содержания!