***Уважаемые пользователи и гости !!! Сайт переехал на новый домен Torrents-club.info. Просьба изменить ваши закладки! ***
 
[ Сегодня идет свободное скачивание без начисления Download ]


Статистика раздачи
Нет
 
   
 
 
 
 
Сотня лжи / A Hundred Lies Информация о фильме
Название: Сотня лжи
Оригинальное название: A Hundred Lies
Год выхода: 2023
Жанр: драма
Режиссер: Рузбех Хейдари
В ролях: Роб Рако, Дэна Абрахам, Умберли Гонсалес, Брэндон МакНайт, Джессика Эмли, Стивен Трэйси, Майкл Ксавьер, Чейз Тан, Мерседес Бланш, Ник Нейм
О фильме: Рикки, 25-летний музыкант из Торонто, стоит на пороге возрождения своей музыкальной карьеры благодаря сотрудничеству с андеграундным продюсером Терренсом. Их музыка начинает набирать обороты, привлекая внимание всё большего числа слушателей. В это время певица Фиона, которая также вовлечена в их проекты, сталкивается с темной стороной прошлого Рикки, находя следы старой трагедии, которая могла бы подвергнуть риску их восходящий успех.
По мере того как карьера Рикки и Фионы стремительно идет вверх, они начинают осознавать, что успех в музыкальной индустрии не приходит без жертв. Смогут ли они сохранить свою артистическую идентичность и личную честность, когда вокруг так много искушений и тайн? И какую цену придется заплатить за мечту о звездной жизни, когда тени прошлого не желают уходить?
Семпл
Страна: Канада
Студия: Red Hill Entertainment
Продолжительность: 01:34:38
Перевод: Любительский (многоголосый закадровый) | RGB
Файл
Формат: MKV
Качество: WEBRip-AVC
Видео: AVC/H.264, 720x298, ~2039, 23.976 fps
Аудио: AC3, 48 kHz, 6 ch, 384 Kbps - Русский
Субтитры: отсутствуют

MediaInfo

General
Unique ID : 1015383024096852788329276872672759857 (0xC38E3F8B68615E9823500840B95031)
Complete name : E:RGB1A.Hundred.Lies.2024.WEB.MVO.5.1-RGB.mkv
Format : Matroska
Format version : Version 4
File size : 1.60 GiB
Duration : 1 h 34 min
Overall bit rate : 2 424 kb/s
Frame rate : 23.976 FPS
Movie name : RGB
Encoded date : 2024-06-22 00:28:53 UTC
Writing application : mkvmerge v82.0 ('I'm The President') 64-bit
Writing library : libebml v1.4.5 + libmatroska v1.7.1
Video
ID : 1
Format : AVC
Format/Info : Advanced Video Codec
Format profile : High@L4.1
Format settings : CABAC / 10 Ref Frames
Format settings, CABAC : Yes
Format settings, Reference : 10 frames
Codec ID : V_MPEG4/ISO/AVC
Duration : 1 h 34 min
Bit rate : 2 039 kb/s
Width : 720 pixels
Height : 298 pixels
Display aspect ratio : 2.40:1
Frame rate mode : Constant
Frame rate : 23.976 (24000/1001) FPS
Color space : YUV
Chroma subsampling : 4:2:0
Bit depth : 8 bits
Scan type : Progressive
Bits/(Pixel*Frame) : 0.396
Stream size : 1.35 GiB (84%)
Title : RGB
Language : English
Default : Yes
Forced : No
Audio
ID : 2
Format : AC-3
Format/Info : Audio Coding 3
Commercial name : Dolby Digital
Codec ID : A_AC3
Duration : 1 h 34 min
Bit rate mode : Constant
Bit rate : 384 kb/s
Channel(s) : 6 channels
Channel layout : L R C LFE Ls Rs
Sampling rate : 48.0 kHz
Frame rate : 31.250 FPS (1536 SPF)
Compression mode : Lossy
Stream size : 260 MiB (16%)
Title : MVO [RGB]
Language : Russian
Service kind : Complete Main
Default : Yes
Forced : No
AC3_metadata cmixlev : -3.0 dB
surmixlev : -6 dB

Скриншоты:

Скриншоты

[Цитировать]



Показать сообщения:    

Текущее время: 14-Июл 10:28

Часовой пояс: UTC + 6


Вы не можете начинать темы
Вы не можете отвечать на сообщения
Вы не можете редактировать свои сообщения
Вы не можете удалять свои сообщения
Вы не можете голосовать в опросах
Вы не можете прикреплять файлы к сообщениям
Вы не можете скачивать файлы

!ВНИМАНИЕ!
Сайт не предоставляет электронные версии произведений, а занимается лишь коллекционированием и каталогизацией ссылок, присылаемых и публикуемых на форуме нашими читателями. Если вы являетесь правообладателем какого-либо представленного материала и не желаете, чтобы ссылка на него находилась в нашем каталоге, свяжитесь с нами, и мы незамедлительно удалим ее. Файлы для обмена на трекере предоставлены пользователями сайта, и администрация не несет ответственности за их содержание. Просьба не заливать файлы, защищенные авторскими правами, а также файлы нелегального содержания!