***Уважаемые пользователи и гости !!! Сайт переехал на новый домен Torrents-club.info. Просьба изменить ваши закладки! ***
 
[ Сегодня идет свободное скачивание без начисления Download ]


Статистика раздачи
Нет
 
   
 
 
 
 
Поддержка / Бэкспот / Backspot Информация о фильме
Название: Поддержка / Бэкспот
Оригинальное название: Backspot
Год выхода: 2023
Жанр: драма
Режиссер: Д.В. Уотерсон
В ролях: Девери Джейкобс, Эван Рэйчел Вуд, Шаннин Соссамон, Венди Крюсон, Томас Энтони Оладжиде, Ноа ДиБерто, Олунике Аделийи, Эммерли Тинглин, Адрианна Ди Лиелло
О фильме: Райли крайне амбициозна, но не уверена в своих силах. Для Райли становится шоком, когда она проходит отбор в профессиональную команду поддержки «Тандерхоукс», которую возглавляет требовательная Эйлин Макнамара. В преддверии важного соревнования главная героиня проходит через суровые тренировки и сильный стресс, из-за чего рискует окончательно потерять контроль над собой и тем самым подвести команду.
Семпл
Страна: Канада, США
Студия: Crave, Night Is Y, Ontario Creates, Pageboy Productions
Продолжительность: 01:32:26
Перевод: Любительский (многоголосый закадровый) | RGB
Файл
Формат: MKV
Качество: WEBRip 1080p
Видео: AVC/H.264, 1916x956, ~6613 Kbps, 23.976 fps
Аудио 1: AC3, 48 kHz, 2 ch, 192 Kbps - Русский
Аудио 2: AC3, 48 kHz, 6 ch, 384 Kbps - Английский
Субтитры: отсутствуют

MediaInfo

General
Unique ID : 154630902957893519965120843924794498835 (0x7454D42151F2240B93BF907881F7DF13)
Complete name : E:RGBBackspot.2024.1080p.WEB.MVO-RGB.mkv
Format : Matroska
Format version : Version 4
File size : 4.64 GiB
Duration : 1 h 32 min
Overall bit rate : 7 191 kb/s
Frame rate : 23.976 FPS
Movie name : RGB
Encoded date : 2024-06-19 17:48:59 UTC
Writing application : mkvmerge v82.0 ('I'm The President') 64-bit
Writing library : libebml v1.4.5 + libmatroska v1.7.1
Video
ID : 1
Format : AVC
Format/Info : Advanced Video Codec
Format profile : High@L4
Format settings : CABAC / 4 Ref Frames
Format settings, CABAC : Yes
Format settings, Reference : 4 frames
Format settings, Slice coun : 8 slices per frame
Codec ID : V_MPEG4/ISO/AVC
Duration : 1 h 32 min
Bit rate : 6 613 kb/s
Width : 1 916 pixels
Height : 956 pixels
Display aspect ratio : 2.004
Frame rate mode : Constant
Frame rate : 23.976 (24000/1001) FPS
Color space : YUV
Chroma subsampling : 4:2:0
Bit depth : 8 bits
Scan type : Progressive
Bits/(Pixel*Frame) : 0.151
Stream size : 4.27 GiB (92%)
Title : RGB
Language : English
Default : Yes
Forced : No
Color range : Limited
Color primaries : BT.709
Transfer characteristics : BT.709
Matrix coefficients : BT.709
Audio #1
ID : 2
Format : AC-3
Format/Info : Audio Coding 3
Commercial name : Dolby Digital
Codec ID : A_AC3
Duration : 1 h 32 min
Bit rate mode : Constant
Bit rate : 192 kb/s
Channel(s) : 2 channels
Channel layout : L R
Sampling rate : 48.0 kHz
Frame rate : 31.250 FPS (1536 SPF)
Compression mode : Lossy
Stream size : 127 MiB (3%)
Title : MVO [RGB]
Language : Russian
Service kind : Complete Main
Default : Yes
Forced : No
Audio #2
ID : 3
Format : AC-3
Format/Info : Audio Coding 3
Commercial name : Dolby Digital
Codec ID : A_AC3
Duration : 1 h 32 min
Bit rate mode : Constant
Bit rate : 384 kb/s
Channel(s) : 6 channels
Channel layout : L R C LFE Ls Rs
Sampling rate : 48.0 kHz
Frame rate : 31.250 FPS (1536 SPF)
Compression mode : Lossy
Stream size : 254 MiB (5%)
Title : English
Language : English
Service kind : Complete Main
Default : No
Forced : No
AC3_metadata cmixlev : -3.0 dB
surmixlev : -3 dB

Скриншоты:

Скриншоты

[Цитировать]



Показать сообщения:    

Текущее время: 14-Июл 10:59

Часовой пояс: UTC + 6


Вы не можете начинать темы
Вы не можете отвечать на сообщения
Вы не можете редактировать свои сообщения
Вы не можете удалять свои сообщения
Вы не можете голосовать в опросах
Вы не можете прикреплять файлы к сообщениям
Вы не можете скачивать файлы

!ВНИМАНИЕ!
Сайт не предоставляет электронные версии произведений, а занимается лишь коллекционированием и каталогизацией ссылок, присылаемых и публикуемых на форуме нашими читателями. Если вы являетесь правообладателем какого-либо представленного материала и не желаете, чтобы ссылка на него находилась в нашем каталоге, свяжитесь с нами, и мы незамедлительно удалим ее. Файлы для обмена на трекере предоставлены пользователями сайта, и администрация не несет ответственности за их содержание. Просьба не заливать файлы, защищенные авторскими правами, а также файлы нелегального содержания!