***Уважаемые пользователи и гости !!! Сайт переехал на новый домен Torrents-club.info. Просьба изменить ваши закладки! ***
 
[ Сегодня идет свободное скачивание без начисления Download ]


Статистика раздачи
Нет
 
   
 
 
 
 
Воображаемый друг / Imaginary (2024) [4K, HEVC, HDR10+, Dolby Vision Profile 8 / WEB-DL] (2160p) Год выпуска: 2024
Жанр: Ужасы, мистика, триллер, драма
Выпущено: США, Blumhouse Productions, Lionsgate Films, Tower of Babble Entertainment
Режиссер: Джефф Уодлоу
Продолжительность: 01:44:09
Перевод: Профессиональный двухголосый
Субтитры: Русские, английские

В ролях
: ДеВанда Уайз, Тэджен Бёрнс, Пайпер Браун, Бетти Бакли, Том Пэйн, Вероника Фалькон, Мэттью Сато, Аликс Анджелис, Ванета Уолмсли, Шоун Санс, Сесилия Лил, Эдуардо Кампирано, Дэйн ДиЛьегро, Рональд Биньон

О фильме
: Вместе с мужем и двумя падчерицами Джессика переезжает в отчий дом — место, где она была счастлива. Девушка надеется, что это вернёт ей вдохновение для продолжения серии детских книг, а девочкам поможет прийти в себя после того, как их родной матери было диагностировано психическое заболевание. Младшенькая находит в подвале плюшевого медвежонка и теперь целыми днями играет с ним в игры, как вскоре выяснится, далеко не безобидные.
Техданные
Качество: WEB-DL (2160p)
Видео: MPEG-H HEVC, 24.2 Мбит/с, 3824x1588, 10 бит
Аудио: Русский, английский (Е-AC3, 6 ch, 768 Кбит/с)

Релиз

Автор: Andron1975
Перевод: Профессиональный (двухголосый закадровый) ViruseProject
Субтитры: Русские, Английские (Full, SDH)
Оригинальная аудиодорожка: Aнглийская
Видео: MPEG-H HEVC Video / 24,2 Mbps / 3824x1588 / 23.976 fps / 2.40:1 / Main 10 @ Level 5 @ High / 10 bits / Dolby Vision - Profile 8 / HDR10+ / HDR10 /
Аудио 1: Russian E-AC3 / 5.1 / 48 kHz / 768 kbps |MVO, ViruseProject|
Аудио 2: English E-AC3 / 5.1 / 48 kHz / 768 kbps |Original|
Формат субтитров: softsub (SRT)
Реклама: Отсутствует
Доп. информация:
Дорожка №1 получена путём наложения выделенных голосов на центр декодированного оригинала.
Работа со звуком Andron1975 (DVT).

Открой меня

General
Unique ID                                : 7393012323038823726816842526371640336 (0x58FD7A64B9F56196C1F457235C87410)
Complete name                            : T:\RELEASES\Imaginary\Imaginary.2024.2160p.WEB-DL.DDP5.1.Atmos.DV.HDR.HP8-DVT.mkv
Format                                   : Matroska
Format version                           : Version 4
File size                                : 18.7 GiB
Duration                                 : 1 h 44 min
Overall bit rate                         : 25.7 Mb/s
Frame rate                               : 23.976 FPS
Movie name                               : Imaginary (2024) - Release by DVT
Encoded date                             : 2024-04-06 09:32:27 UTC
Writing application                      : mkvmerge v83.0 ('Circle Of Friends') 64-bit
Writing library                          : libebml v1.4.5 + libmatroska v1.7.1
Cover                                    : Yes
Attachments                              : cover.jpg
Video
ID                                       : 1
Format                                   : HEVC
Format/Info                              : High Efficiency Video Coding
Format profile                           : Main 10@L5@High
HDR format                               : Dolby Vision, Version 1.0, dvhe.08.06, BL+RPU, HDR10 compatible / SMPTE ST 2094 App 4, Version 1, HDR10+ Profile B compatible
Codec ID                                 : V_MPEGH/ISO/HEVC
Duration                                 : 1 h 44 min
Bit rate                                 : 24.2 Mb/s
Width                                    : 3 824 pixels
Height                                   : 1 588 pixels
Display aspect ratio                     : 2.40:1
Frame rate mode                          : Constant
Frame rate                               : 23.976 (24000/1001) FPS
Original frame rate                      : 23.976 (23976/1000) FPS
Color space                              : YUV
Chroma subsampling                       : 4:2:0 (Type 2)
Bit depth                                : 10 bits
Bits/(Pixel*Frame)                       : 0.166
Stream size                              : 17.6 GiB (94%)
Title                                    : Imaginary (2024)
Language                                 : English
Default                                  : Yes
Forced                                   : No
Color range                              : Limited
Color primaries                          : BT.2020
Transfer characteristics                 : PQ
Matrix coefficients                      : BT.2020 non-constant
Mastering display color primaries        : BT.2020
Mastering display luminance              : min: 0.0050 cd/m2, max: 1000 cd/m2
Maximum Content Light Level              : 1706 cd/m2
Maximum Frame-Average Light Level        : 161 cd/m2
Audio #1
ID                                       : 2
Format                                   : E-AC-3
Format/Info                              : Enhanced AC-3
Commercial name                          : Dolby Digital Plus
Codec ID                                 : A_EAC3
Duration                                 : 1 h 44 min
Bit rate mode                            : Constant
Bit rate                                 : 768 kb/s
Channel(s)                               : 6 channels
Channel layout                           : L R C LFE Ls Rs
Sampling rate                            : 48.0 kHz
Frame rate                               : 31.250 FPS (1536 SPF)
Compression mode                         : Lossy
Stream size                              : 572 MiB (3%)
Title                                    : DVO, ViruseProject
Language                                 : Russian
Service kind                             : Complete Main
Default                                  : Yes
Forced                                   : No
Audio #2
ID                                       : 3
Format                                   : E-AC-3 JOC
Format/Info                              : Enhanced AC-3 with Joint Object Coding
Commercial name                          : Dolby Digital Plus with Dolby Atmos
Codec ID                                 : A_EAC3
Duration                                 : 1 h 44 min
Bit rate mode                            : Constant
Bit rate                                 : 768 kb/s
Channel(s)                               : 6 channels
Channel layout                           : L R C LFE Ls Rs
Sampling rate                            : 48.0 kHz
Frame rate                               : 31.250 FPS (1536 SPF)
Compression mode                         : Lossy
Stream size                              : 572 MiB (3%)
Title                                    : Original
Language                                 : English
Service kind                             : Complete Main
Default                                  : No
Forced                                   : No
Complexity index                         : 16
Number of dynamic objects                : 15
Bed channel count                        : 1 channel
Bed channel configuration                : LFE
Text #1
ID                                       : 4
Format                                   : UTF-8
Codec ID                                 : S_TEXT/UTF8
Codec ID/Info                            : UTF-8 Plain Text
Duration                                 : 1 h 38 min
Bit rate                                 : 72 b/s
Frame rate                               : 0.218 FPS
Count of elements                        : 1288
Stream size                              : 52.6 KiB (0%)
Title                                    : Full
Language                                 : Russian
Default                                  : No
Forced                                   : No
Text #2
ID                                       : 5
Format                                   : UTF-8
Codec ID                                 : S_TEXT/UTF8
Codec ID/Info                            : UTF-8 Plain Text
Duration                                 : 1 h 42 min
Bit rate                                 : 45 b/s
Frame rate                               : 0.218 FPS
Count of elements                        : 1342
Stream size                              : 34.3 KiB (0%)
Title                                    : Full
Language                                 : English
Default                                  : No
Forced                                   : No
Text #3
ID                                       : 6
Format                                   : UTF-8
Codec ID                                 : S_TEXT/UTF8
Codec ID/Info                            : UTF-8 Plain Text
Duration                                 : 1 h 43 min
Bit rate                                 : 61 b/s
Frame rate                               : 0.287 FPS
Count of elements                        : 1776
Stream size                              : 46.8 KiB (0%)
Title                                    : SDH
Language                                 : English
Default                                  : No
Forced                                   : No
Menu
00:00:00.000                             : en:Chapter 01
00:06:28.555                             : en:Chapter 02
00:10:45.645                             : en:Chapter 03
00:20:07.207                             : en:Chapter 04
00:27:50.670                             : en:Chapter 05
00:34:04.044                             : en:Chapter 06
00:43:56.845                             : en:Chapter 07
00:47:58.503                             : en:Chapter 08
00:55:20.904                             : en:Chapter 09
01:03:25.805                             : en:Chapter 10
01:12:28.348                             : en:Chapter 11
01:16:15.825                             : en:Chapter 12
01:32:34.554                             : en:Chapter 13
01:40:04.045                             : en:Chapter 14

Скриншоты

MAGNET

Открой меня

magnet:?xt=urn:btih:C3D4DFB4D07A5CFE75B59DB075B499A017090DB3&dn=Imaginary.2024.2160p.WEB-DL.DDP5.1.Atmos.DV.HDR.HP8-DVT.mkv&tr=http%3a%2f%2ftr5.tor2me.info%2fann%3fuk%3dF5E20kt2HF&tr=http%3a%2f%2ftr5.torrent4me.com%2fann%3fuk%3dF5E20kt2HF&tr=http%3a%2f%2ftr5.tor4me.info%2fann%3fuk%3dF5E20kt2HF&tr=http%3a%2f%2fretracker.local%2fannounce&tr=http%3a%2f%2fxbt.setitagila.ru%3a2710%2fannounce

[Цитировать]



Показать сообщения:    

Текущее время: 14-Июл 10:57

Часовой пояс: UTC + 6


Вы не можете начинать темы
Вы не можете отвечать на сообщения
Вы не можете редактировать свои сообщения
Вы не можете удалять свои сообщения
Вы не можете голосовать в опросах
Вы не можете прикреплять файлы к сообщениям
Вы не можете скачивать файлы

!ВНИМАНИЕ!
Сайт не предоставляет электронные версии произведений, а занимается лишь коллекционированием и каталогизацией ссылок, присылаемых и публикуемых на форуме нашими читателями. Если вы являетесь правообладателем какого-либо представленного материала и не желаете, чтобы ссылка на него находилась в нашем каталоге, свяжитесь с нами, и мы незамедлительно удалим ее. Файлы для обмена на трекере предоставлены пользователями сайта, и администрация не несет ответственности за их содержание. Просьба не заливать файлы, защищенные авторскими правами, а также файлы нелегального содержания!