***Уважаемые пользователи и гости !!! Сайт переехал на новый домен Torrents-club.info. Просьба изменить ваши закладки! ***
 
[ Сегодня идет свободное скачивание без начисления Download ]


Статистика раздачи
Нет
 
   
 
 
 
 
Воображаемый друг / Imaginary (i2024) [4K, HEVC, HDR10, Dolby Vision Profile 7 / Blu-Ray Remux] (2160p) Год выпуска: 2024
Жанр: Ужасы, мистика, триллер, драма
Выпущено: США, Blumhouse Productions, Lionsgate Films, Tower of Babble Entertainment
Режиссер: Джефф Уодлоу
Продолжительность: 01:44:09
Перевод: Профессиональный двухголосый
Субтитры: Английские, итальянские, русские

В ролях
: ДеВанда Уайз, Тэджен Бёрнс, Пайпер Браун, Бетти Бакли, Том Пэйн, Вероника Фалькон, Мэттью Сато, Аликс Анджелис, Ванета Уолмсли, Шоун Санс, Сесилия Лил, Эдуардо Кампирано, Дэйн ДиЛьегро, Рональд Биньон

О фильме
: Вместе с мужем и двумя падчерицами Джессика переезжает в отчий дом — место, где она была счастлива. Девушка надеется, что это вернёт ей вдохновение для продолжения серии детских книг, а девочкам поможет прийти в себя после того, как их родной матери было диагностировано психическое заболевание. Младшенькая находит в подвале плюшевого медвежонка и теперь целыми днями играет с ним в игры, как вскоре выяснится, далеко не безобидные.
Техданные
Качество: Blu-Ray Remux (2160p)
Видео: MPEG-H HEVC, 65.6 Мбит/с, 3840x2160, 10 бит
Аудио: Русский (Е-AC3, 6 ch, 768 Кбит/с), украинский (AC3, 6 ch, 448 Кбит/с), английский (DTS-HD MA, 6 ch, 3891 Кбит/с)

Релиз

Автор-релизер: Нечипорук
Перевод 1: Профессиональный (двухголосый закадровый) ViruseProject
Перевод 2: Профессиональный (дублированный) Украинский
Субтитры: русские - полные (ViruseProject), английские - Full, Full SDH, итальянские - полные
Оригинальная аудиодорожка: английская
Видео: H.265/HEVC, 3840x2160, 16:9 (2.388, 43:18, Анаморф), 65,6 Mb/s, 24 fps, 10 bits, HDR10, Dolby Vision FEL 07.06
Аудио 1: Русский, E-AC3, 5.1, 48.0 kHz, 768 kbps / DVO ViruseProject
Аудио 2: Украинский, AC3, 5.1, 48.0 kHz, 448 kbps / Dub Українська
Аудио 3: Английский, DTS HD MA, 5.1, 48 kHz, 3 891 kbps, 24 bits / Original English*
Формат субтитров: softsub (SRT) / prerendered (Blu Ray/PGS/SUP)
Примечание:
* Core: DTS, 5.1, 1509 kbps, 48kHz
Доп. информация:
- Итальянское издание Eagle Pictures от 20.06.2024 в нативном 4К
- Источник: Imaginary.2024.2160p.UHD.Blu-ray.HEVC.DTS-HD.MA.5.1
- Русская дорожка сделана из выделенных голосов Andron1975, взял с его раздачи
- Синхронизация всех дорожек и субтитров: Нечипорук
- В видео присутствует немного итальянского хардсаба на надписи

MediaInfo:

General
Unique ID                      : 73328193331259146818128732649203666178 (0x372A7F0F8325C7B1C219BFB3828F8D02)
Complete name                  : H:\Imaginary.2024.2160p.UHD.BDREMUX.HDR.DV.HEVC-Нечипорук.mkv
Format                         : Matroska
Format version                 : Version 4
File size                      : 51.6 GiB
Duration                       : 1 h 44 min
Overall bit rate mode          : Variable
Overall bit rate               : 70.7 Mb/s
Frame rate                     : 24.000 FPS
Movie name                     : Imaginary.2024.2160p.UHD.BDREMUX.HDR.DV.HEVC-Нечипорук
Encoded date                   : 2024-07-07 20:22:31 UTC
Writing application            : mkvmerge v85.0 ('Shame For You') 64-bit
Writing library                : libebml v1.4.5 + libmatroska v1.7.1
Cover                          : Yes
Attachments                    : cover.jpg
Video
ID                             : 1
ID in the original source medi : 4113 (0x1011)
Format                         : HEVC
Format/Info                    : High Efficiency Video Coding
Format profile                 : Main 10@L5.1@High
HDR format                     : Dolby Vision, Version 1.0, Profile 7.6, dvhe.07.06, BL+EL+RPU, no metadata compression, Blu-ray compatible / SMPTE ST 2086, Version HDR10, HDR10 compatible
Codec ID                       : V_MPEGH/ISO/HEVC
Duration                       : 1 h 44 min
Bit rate                       : 65.6 Mb/s
Width                          : 3 840 pixels
Height                         : 2 160 pixels
Display aspect ratio           : 16:9
Frame rate mode                : Constant
Frame rate                     : 24.000 FPS
Color space                    : YUV
Chroma subsampling             : 4:2:0 (Type 2)
Bit depth                      : 10 bits
Bits/(Pixel*Frame)             : 0.329
Stream size                    : 47.8 GiB (93%)
Title                          : Imaginary.2024.2160p.UHD.BDREMUX.HDR.DV.HEVC-Нечипорук
Language                       : English
Default                        : Yes
Forced                         : No
Color range                    : Limited
Color primaries                : BT.2020
Transfer characteristics       : PQ
Matrix coefficients            : BT.2020 non-constant
Mastering display color primar : Display P3
Mastering display luminance    : min: 0.0001 cd/m2, max: 1000 cd/m2
Maximum Content Light Level    : 702 cd/m2
Maximum Frame-Average Light Le : 220 cd/m2
Original source medium         : Blu-ray
Audio #1
ID                             : 2
Format                         : E-AC-3
Format/Info                    : Enhanced AC-3
Commercial name                : Dolby Digital Plus
Codec ID                       : A_EAC3
Duration                       : 1 h 44 min
Bit rate mode                  : Constant
Bit rate                       : 768 kb/s
Channel(s)                     : 6 channels
Channel layout                 : L R C LFE Ls Rs
Sampling rate                  : 48.0 kHz
Frame rate                     : 31.250 FPS (1536 SPF)
Compression mode               : Lossy
Stream size                    : 574 MiB (1%)
Title                          : DVO ViruseProject
Language                       : Russian
Service kind                   : Complete Main
Default                        : Yes
Forced                         : No
Dialog Normalization           : -25 dB
compr                          : -0.28 dB
dmixmod                        : Lo/Ro
ltrtcmixlev                    : -3.0 dB
ltrtsurmixlev                  : -3.0 dB
lorocmixlev                    : -3.0 dB
lorosurmixlev                  : -3.0 dB
dialnorm_Average               : -25 dB
dialnorm_Minimum               : -25 dB
dialnorm_Maximum               : -25 dB
Audio #2
ID                             : 3
Format                         : AC-3
Format/Info                    : Audio Coding 3
Commercial name                : Dolby Digital
Codec ID                       : A_AC3
Duration                       : 1 h 44 min
Bit rate mode                  : Constant
Bit rate                       : 448 kb/s
Channel(s)                     : 6 channels
Channel layout                 : L R C LFE Ls Rs
Sampling rate                  : 48.0 kHz
Frame rate                     : 31.250 FPS (1536 SPF)
Compression mode               : Lossy
Stream size                    : 335 MiB (1%)
Title                          : Дубляж Українська
Language                       : Ukrainian
Service kind                   : Complete Main
Default                        : No
Forced                         : No
Dialog Normalization           : -31 dB
compr                          : -0.28 dB
cmixlev                        : -3.0 dB
surmixlev                      : -3 dB
dmixmod                        : Lo/Ro
ltrtcmixlev                    : -3.0 dB
ltrtsurmixlev                  : -3.0 dB
lorocmixlev                    : -3.0 dB
lorosurmixlev                  : -3.0 dB
dialnorm_Average               : -31 dB
dialnorm_Minimum               : -31 dB
dialnorm_Maximum               : -31 dB
Audio #3
ID                             : 4
ID in the original source medi : 4353 (0x1101)
Format                         : DTS XLL
Format/Info                    : Digital Theater Systems
Commercial name                : DTS-HD Master Audio
Codec ID                       : A_DTS
Duration                       : 1 h 44 min
Bit rate mode                  : Variable
Bit rate                       : 3 891 kb/s
Channel(s)                     : 6 channels
Channel layout                 : C L R Ls Rs LFE
Sampling rate                  : 48.0 kHz
Frame rate                     : 93.750 FPS (512 SPF)
Bit depth                      : 24 bits
Compression mode               : Lossless
Stream size                    : 2.84 GiB (6%)
Title                          : Original
Language                       : English
Default                        : No
Forced                         : No
Original source medium         : Blu-ray
Text #1
ID                             : 5
Format                         : UTF-8
Codec ID                       : S_TEXT/UTF8
Codec ID/Info                  : UTF-8 Plain Text
Duration                       : 1 h 38 min
Bit rate                       : 73 b/s
Frame rate                     : 0.218 FPS
Count of elements              : 1288
Stream size                    : 52.6 KiB (0%)
Title                          : Полные ViruseProject
Language                       : Russian
Default                        : No
Forced                         : No
Text #2
ID                             : 6
Format                         : UTF-8
Codec ID                       : S_TEXT/UTF8
Codec ID/Info                  : UTF-8 Plain Text
Duration                       : 1 h 42 min
Bit rate                       : 45 b/s
Frame rate                     : 0.219 FPS
Count of elements              : 1342
Stream size                    : 34.3 KiB (0%)
Title                          : Full
Language                       : English
Default                        : No
Forced                         : No
Text #3
ID                             : 7
Format                         : UTF-8
Codec ID                       : S_TEXT/UTF8
Codec ID/Info                  : UTF-8 Plain Text
Duration                       : 1 h 43 min
Bit rate                       : 61 b/s
Frame rate                     : 0.287 FPS
Count of elements              : 1776
Stream size                    : 46.8 KiB (0%)
Title                          : Full SDH
Language                       : English
Default                        : No
Forced                         : No
Text #4
ID                             : 8
ID in the original source medi : 4768 (0x12A0)
Format                         : PGS
Muxing mode                    : zlib
Codec ID                       : S_HDMV/PGS
Codec ID/Info                  : Picture based subtitle format used on BDs/HD-DVDs
Duration                       : 1 h 38 min
Bit rate                       : 24.7 kb/s
Frame rate                     : 0.340 FPS
Count of elements              : 2004
Stream size                    : 17.4 MiB (0%)
Title                          : Sottotitoli completi
Language                       : Italian
Default                        : No
Forced                         : No
Original source medium         : Blu-ray
Menu
00:00:00.000                   : en:Глава 01
00:05:59.166                   : en:Глава 02
00:16:29.958                   : en:Глава 03
00:24:47.250                   : en:Глава 04
00:33:27.000                   : en:Глава 05
00:41:43.708                   : en:Глава 06
00:53:09.750                   : en:Глава 07
00:58:12.458                   : en:Глава 08
01:07:17.291                   : en:Глава 09
01:16:19.708                   : en:Глава 10
01:24:12.083                   : en:Глава 11
01:32:13.291                   : en:Глава 12

Скриншоты

MAGNET

Открой меня

magnet:?xt=urn:btih:FD608ED00D7D591883EE0A4702BE5E7A7959DD18&dn=Imaginary.2024.2160p.UHD.BDREMUX.HDR.DV.HEVC-%d0%9d%d0%b5%d1%87%d0%b8%d0%bf%d0%be%d1%80%d1%83%d0%ba.mkv&tr=http%3a%2f%2ftr0.tor4me.info%2fann%3fuk%3dF5E20kt2HF&tr=http%3a%2f%2ftr0.tor2me.info%2fann%3fuk%3dF5E20kt2HF&tr=http%3a%2f%2ftr0.torrent4me.com%2fann%3fuk%3dF5E20kt2HF&tr=http%3a%2f%2fretracker.local%2fannounce&tr=http%3a%2f%2fxbt.setitagila.ru%3a2710%2fannounce

[Цитировать]



Показать сообщения:    

Текущее время: 14-Июл 10:56

Часовой пояс: UTC + 6


Вы не можете начинать темы
Вы не можете отвечать на сообщения
Вы не можете редактировать свои сообщения
Вы не можете удалять свои сообщения
Вы не можете голосовать в опросах
Вы не можете прикреплять файлы к сообщениям
Вы не можете скачивать файлы

!ВНИМАНИЕ!
Сайт не предоставляет электронные версии произведений, а занимается лишь коллекционированием и каталогизацией ссылок, присылаемых и публикуемых на форуме нашими читателями. Если вы являетесь правообладателем какого-либо представленного материала и не желаете, чтобы ссылка на него находилась в нашем каталоге, свяжитесь с нами, и мы незамедлительно удалим ее. Файлы для обмена на трекере предоставлены пользователями сайта, и администрация не несет ответственности за их содержание. Просьба не заливать файлы, защищенные авторскими правами, а также файлы нелегального содержания!