***Уважаемые пользователи и гости !!! Сайт переехал на новый домен Torrents-club.info. Просьба изменить ваши закладки! ***
 
[ Сегодня идет свободное скачивание без начисления Download ]


Статистика раздачи
Нет
 
   
 
 
 
 
Гарфилд в кино / The Garfield Movie (2024) [4K, HEVC, Dolby Vision TV / WEB-DL] (2160p) Год выпуска: 2024
Жанр: Мультфильм, фэнтези, комедия, приключения, семейный
Выпущено: Великобритания, США, Гонконг, Alcon Entertainment, Columbia Pictures, Double Negative (DNEG)
Режиссер: Марк Диндал
Продолжительность: 01:41:00
Перевод: Дублированный
Субтитры: Русские, английские, украинские
В ролях: Крис Прэтт, Сэмюэл Л. Джексон, Ханна Уэддингхэм, Винг Рэймс, Николас Холт, Сесили Стронг, Харви Гильен, Бретт Голдстин, Бовэнь Ян, Снуп Догг

О фильме
: После неожиданного воссоединения со своим давно потерянным отцом - уличным котом Виком - Гарфилд вместе с другом-псом Оди вынужден отказаться от своей идеально тепличной жизни и присоединиться к весёлому и опасному приключению.
Техданные
Качество: WEB-DL (2160p)
Видео: MPEG-H HEVC, 14.2 Мбит/с, 3840x2072, 23.976 кадр/с, 10 бит
Аудио: Русский (Е-AC3, 6 ch, 384 Кбит/с), английский (E-AC3, 6 ch, 640 Кбит/с)

Релиз

ДАННЫЙ РЕЛИЗ ТОЛЬКО ДЛЯ УСТРОЙСТВ С ПОДДЕРЖКОЙ DOLBY VISION
Если ваше устройство без поддержки dv, изображение будет "фиолетовое", как на первом скриншоте
Гарфилд в кино / The Garfield Movie / 2024:
Видео: HEVC • 3840x2072 • 14.2 Mbps (Dolby Vision, Version 1.0, Profile 5, dvhe.05.06, BL+RPU, no metadata compression)
Аудио01: E-AC-3 • 5.1 • 384 kbps • DUB | MovieDalen • RUS
Аудио02: AC-3 • 2.0 • 192 kbps • DUB | Red Head Sound • RUS
Аудио03: E-AC-3 • 5.1 • 384 kbps • DUB | LeDoyen • UKR
Аудио04: E-AC-3 • 5.1 • 640 kbps • Original | Amazon • ENG
Субтитры01: Forced | Amazon • RUS
Субтитры02: Full | Amazon • RUS
Субтитры03: Forced | Amazon • UKR
Субтитры04: Full | Amazon • UKR
Субтитры05: Full | Amazon • ENG
Субтитры06: SDH | Amazon • ENG
Меню: Chapters | Amazon • ENG
*Дорожка №1 доступна благодаря RGPlanB
**Дорожка №3 доступна благодаря karvai и трекеру UTOPIA
***Вся работа по энкоду и сборке данного релиза - TheEqualizer

MediaInfo:

General
Format                                   : MPEG-4
Format profile                           : Base Media
Codec ID                                 : isom (isom/dby1/iso2/mp41)
File size                                : 11.2 GiB
Duration                                 : 1 h 41 min
Overall bit rate mode                    : Variable
Overall bit rate                         : 15.8 Mb/s
Frame rate                               : 23.976 FPS
Movie name                               : The Garfield Movie (2024) by TheEqualizer
Tagged date                              : 2024-07-12 19:58:36 UTC
Writing application                      : Lavf60.3.100
Cover                                    : Yes
Video
ID                                       : 1
Format                                   : HEVC
Format/Info                              : High Efficiency Video Coding
Format profile                           : Main 10@L5@High
HDR format                               : Dolby Vision, Version 1.0, Profile 5, dvhe.05.06, BL+RPU, no metadata compression
Codec ID                                 : hev1
Codec ID/Info                            : High Efficiency Video Coding
Duration                                 : 1 h 41 min
Bit rate                                 : 14.2 Mb/s
Width                                    : 3 840 pixels
Height                                   : 2 072 pixels
Display aspect ratio                     : 1.85:1
Frame rate mode                          : Constant
Frame rate                               : 23.976 (24000/1001) FPS
Color space                              : YUV
Chroma subsampling                       : 4:2:0
Bit depth                                : 10 bits
Bits/(Pixel*Frame)                       : 0.075
Stream size                              : 10.0 GiB (90%)
Title                                    : The Garfield Movie
Language                                 : English
Tagged date                              : 2024-07-12 19:58:36 UTC
Menus                                    : 13
Codec configuration box                  : hvcC+dvcC
Audio #1
ID                                       : 3
Format                                   : E-AC-3
Format/Info                              : Enhanced AC-3
Commercial name                          : Dolby Digital Plus
Codec ID                                 : ec-3
Duration                                 : 1 h 40 min
Bit rate mode                            : Constant
Bit rate                                 : 384 kb/s
Channel(s)                               : 6 channels
Channel layout                           : L R C LFE Ls Rs
Sampling rate                            : 48.0 kHz
Frame rate                               : 31.250 FPS (1536 SPF)
Compression mode                         : Lossy
Stream size                              : 277 MiB (2%)
Title                                    : DUB | MovieDalen
Language                                 : Russian
Service kind                             : Complete Main
Default                                  : Yes
Alternate group                          : 1
Tagged date                              : 2024-07-12 19:58:36 UTC
Menus                                    : 13
Dialog Normalization                     : -20 dB
compr                                    : 0.53 dB
dialnorm_Average                         : -20 dB
dialnorm_Minimum                         : -20 dB
dialnorm_Maximum                         : -20 dB
Audio #2
ID                                       : 4
Format                                   : AC-3
Format/Info                              : Audio Coding 3
Commercial name                          : Dolby Digital
Codec ID                                 : ac-3
Duration                                 : 1 h 40 min
Bit rate mode                            : Constant
Bit rate                                 : 192 kb/s
Channel(s)                               : 2 channels
Channel layout                           : L R
Sampling rate                            : 48.0 kHz
Frame rate                               : 31.250 FPS (1536 SPF)
Compression mode                         : Lossy
Stream size                              : 139 MiB (1%)
Title                                    : DUB | Red Head Sound
Language                                 : Russian
Service kind                             : Complete Main
Default                                  : No
Alternate group                          : 1
Tagged date                              : 2024-07-12 19:58:36 UTC
Menus                                    : 13
Dialog Normalization                     : -31 dB
dialnorm_Average                         : -31 dB
dialnorm_Minimum                         : -31 dB
dialnorm_Maximum                         : -31 dB
Audio #3
ID                                       : 5
Format                                   : E-AC-3
Format/Info                              : Enhanced AC-3
Commercial name                          : Dolby Digital Plus
Codec ID                                 : ec-3
Duration                                 : 1 h 40 min
Bit rate mode                            : Constant
Bit rate                                 : 384 kb/s
Channel(s)                               : 6 channels
Channel layout                           : L R C LFE Ls Rs
Sampling rate                            : 48.0 kHz
Frame rate                               : 31.250 FPS (1536 SPF)
Compression mode                         : Lossy
Stream size                              : 277 MiB (2%)
Title                                    : DUB | LeDoyen
Language                                 : Ukrainian
Service kind                             : Complete Main
Default                                  : No
Alternate group                          : 1
Tagged date                              : 2024-07-12 19:58:36 UTC
Menus                                    : 13
Dialog Normalization                     : -20 dB
compr                                    : 0.53 dB
dialnorm_Average                         : -20 dB
dialnorm_Minimum                         : -20 dB
dialnorm_Maximum                         : -20 dB
Audio #4
ID                                       : 6
Format                                   : E-AC-3
Format/Info                              : Enhanced AC-3
Commercial name                          : Dolby Digital Plus
Codec ID                                 : ec-3
Duration                                 : 1 h 40 min
Bit rate mode                            : Constant
Bit rate                                 : 640 kb/s
Channel(s)                               : 6 channels
Channel layout                           : L R C LFE Ls Rs
Sampling rate                            : 48.0 kHz
Frame rate                               : 31.250 FPS (1536 SPF)
Compression mode                         : Lossy
Stream size                              : 462 MiB (4%)
Title                                    : Original | Amazon
Language                                 : English
Service kind                             : Complete Main
Default                                  : No
Alternate group                          : 1
Tagged date                              : 2024-07-12 19:58:36 UTC
Menus                                    : 13
Dialog Normalization                     : -31 dB
compr                                    : -0.28 dB
dialnorm_Average                         : -31 dB
dialnorm_Minimum                         : -31 dB
dialnorm_Maximum                         : -31 dB
Text #1
ID                                       : 7
Format                                   : Timed Text
Muxing mode                              : sbtl
Codec ID                                 : tx3g
Duration                                 : 1 h 40 min
Bit rate mode                            : Variable
Bit rate                                 : 5 b/s
Frame rate                               : 0.070 FPS
Stream size                              : 3.53 KiB (0%)
Title                                    : Forced | Amazon
Language                                 : Russian
Default                                  : Yes
Forced                                   : Yes / No
Alternate group                          : 3
Count of events                          : 210
Menus                                    : 13
Text #2
ID                                       : 8
Format                                   : Timed Text
Muxing mode                              : sbtl
Codec ID                                 : tx3g
Duration                                 : 1 h 40 min
Bit rate mode                            : Variable
Bit rate                                 : 113 b/s
Frame rate                               : 0.486 FPS
Stream size                              : 83.4 KiB (0%)
Title                                    : Full | Amazon
Language                                 : Russian
Service kind                             : Dubbed
Default                                  : No
Forced                                   : No
Alternate group                          : 3
Count of events                          : 1470
Menus                                    : 13
Text #3
ID                                       : 9
Format                                   : Timed Text
Muxing mode                              : sbtl
Codec ID                                 : tx3g
Duration                                 : 1 h 40 min
Bit rate mode                            : Variable
Bit rate                                 : 4 b/s
Frame rate                               : 0.065 FPS
Stream size                              : 2.93 KiB (0%)
Title                                    : Forced | Amazon
Language                                 : Ukrainian
Default                                  : No
Forced                                   : No
Alternate group                          : 3
Count of events                          : 195
Menus                                    : 13
Text #4
ID                                       : 10
Format                                   : Timed Text
Muxing mode                              : sbtl
Codec ID                                 : tx3g
Duration                                 : 1 h 40 min
Bit rate mode                            : Variable
Bit rate                                 : 98 b/s
Frame rate                               : 0.465 FPS
Stream size                              : 72.3 KiB (0%)
Title                                    : Full | Amazon
Language                                 : Ukrainian
Service kind                             : Dubbed
Default                                  : No
Forced                                   : No
Alternate group                          : 3
Count of events                          : 1407
Menus                                    : 13
Text #5
ID                                       : 11
Format                                   : Timed Text
Muxing mode                              : sbtl
Codec ID                                 : tx3g
Duration                                 : 1 h 39 min
Bit rate mode                            : Variable
Bit rate                                 : 81 b/s
Frame rate                               : 0.614 FPS
Stream size                              : 59.3 KiB (0%)
Title                                    : Full | Amazon
Language                                 : English
Default                                  : No
Forced                                   : No
Alternate group                          : 3
Count of events                          : 1841
Menus                                    : 13
Text #6
ID                                       : 12
Format                                   : Timed Text
Muxing mode                              : sbtl
Codec ID                                 : tx3g
Duration                                 : 1 h 39 min
Bit rate mode                            : Variable
Bit rate                                 : 81 b/s
Frame rate                               : 0.614 FPS
Stream size                              : 59.3 KiB (0%)
Title                                    : SDH | Amazon
Language                                 : English
Service kind                             : Hearing Impaired
Default                                  : No
Forced                                   : No
Alternate group                          : 3
Count of events                          : 1841
Menus                                    : 13
Menu #1
ID                                       : 13
Format                                   : Timed Text
Codec ID                                 : text
Duration                                 : 1 h 41 min
Language                                 : English
Bit rate mode                            : CBR
Menu For                                 : 1,3,4,5,6,7,8,9,10,11,12
00:00:00.000                             : Chapter 01
00:04:59.424                             : Chapter 02
00:12:21.157                             : Chapter 03
00:17:37.223                             : Chapter 04
00:23:54.517                             : Chapter 05
00:27:57.093                             : Chapter 06
00:36:30.357                             : Chapter 07
00:42:51.446                             : Chapter 08
00:49:45.485                             : Chapter 09
00:53:52.857                             : Chapter 10
00:59:21.478                             : Chapter 11
01:06:42.669                             : Chapter 12
01:11:20.697                             : Chapter 13
01:18:50.730                             : Chapter 14
01:25:20.412                             : Chapter 15
01:31:41.543                             : Chapter 16
Bit rate mode                            : Constant
Menu #2
00:00:00.000                             : Chapter 01
00:04:59.424                             : Chapter 02
00:12:21.157                             : Chapter 03
00:17:37.223                             : Chapter 04
00:23:54.517                             : Chapter 05
00:27:57.093                             : Chapter 06
00:36:30.357                             : Chapter 07
00:42:51.446                             : Chapter 08
00:49:45.485                             : Chapter 09
00:53:52.857                             : Chapter 10
00:59:21.478                             : Chapter 11
01:06:42.669                             : Chapter 12
01:11:20.697                             : Chapter 13
01:18:50.730                             : Chapter 14
01:25:20.412                             : Chapter 15
01:31:41.543                             : Chapter 16

Скриншоты

MAGNET

Открой меня

magnet:?xt=urn:btih:23E510FED462321004BFD9F33EB1F69BF8C51021&dn=The.Garfield.Movie.2024.2160p.WEB-DL.DV-TheEqualizer.mp4&tr=http%3a%2f%2ftr1.tor4me.info%2fann%3fuk%3dF5E20kt2HF&tr=http%3a%2f%2ftr1.tor2me.info%2fann%3fuk%3dF5E20kt2HF&tr=http%3a%2f%2ftr1.torrent4me.com%2fann%3fuk%3dF5E20kt2HF&tr=http%3a%2f%2fretracker.local%2fannounce&tr=wss%3a%2f%2fwstracker.online&tr=http%3a%2f%2fxbt.setitagila.ru%3a2710%2fannounce

[Цитировать]

Раздача обновлена:
- Добавлен дубляж Red Head Sound

[Цитировать]



Показать сообщения:    

Текущее время: 14-Июл 11:34

Часовой пояс: UTC + 6


Вы не можете начинать темы
Вы не можете отвечать на сообщения
Вы не можете редактировать свои сообщения
Вы не можете удалять свои сообщения
Вы не можете голосовать в опросах
Вы не можете прикреплять файлы к сообщениям
Вы не можете скачивать файлы

!ВНИМАНИЕ!
Сайт не предоставляет электронные версии произведений, а занимается лишь коллекционированием и каталогизацией ссылок, присылаемых и публикуемых на форуме нашими читателями. Если вы являетесь правообладателем какого-либо представленного материала и не желаете, чтобы ссылка на него находилась в нашем каталоге, свяжитесь с нами, и мы незамедлительно удалим ее. Файлы для обмена на трекере предоставлены пользователями сайта, и администрация не несет ответственности за их содержание. Просьба не заливать файлы, защищенные авторскими правами, а также файлы нелегального содержания!