***Уважаемые пользователи и гости !!! Сайт переехал на новый домен Torrents-club.info. Просьба изменить ваши закладки! ***
 
[ Сегодня идет свободное скачивание без начисления Download ]


Статистика раздачи
Нет
 
   
 
 
 
 
Московская борзая [01-20 из 20] (2015) Информация о фильме
Название: Московская борзая
Год выхода: 2015
Жанр: Криминал, мелодрама
Режиссер: Роман Просвирнин
В ролях: Ольга Красько, Олег Алмазов, Александр Ратников, Сергей Мухин, Николай Лунин (II), Сергей Шеховцов, Михаил Владимиров, Денис Синявский, Татьяна Кузнецова, Владислав Резник, Александр Стефанцов, Надежда Бахтина, Тихон Бузников, Анастасия Балякина, Анастасия Савосина, Анна Телицына, Владимир Терещенко, Владимир Литвинов, Руслан Ягудин, Сергей Петров (II), Сергей Бадичкин, Юрий Назаров
О фильме:
Алевтина Борзова — умная и привлекательная женщина, майор Московского уголовного розыска. Коллеги и руководство ценят ее как прекрасного специалиста. Но когда раскрываются обстоятельства личной жизни Алевтины — ее роман с зятем начальника — героиня вынуждена уйти с работы. Получив предложение возглавить отдел по тяжким преступлениям в Нижнем Новгороде, Борзова уезжает из Москвы. Однако служба в провинции с самого начала не залаживается. Алевтина попадает в сплоченный мужской коллектив, явно не желающий работать под началом Борзовой. Каждый день превращается для героини в непримиримую борьбу за выживание. Но неколебимая и волевая Алевтина намерена во что бы то ни стало отстоять своё право на новую должность..
Страна: Россия
Студия: Кинокомпания «Русское»
Продолжительность: 20 x ~ 00:45:00
Файл
Кодек: h.264
Качество: WEB-DLRip (AVC)
Видео: MPEG-4 AVC, ~ 1800 Кбит/с, 1024x576, 25 кадр/с
Аудио: AC3, 2 ch, 192 Кбит/с
Язык: Русский

Инфо-файл

Общее
Уникальный идентификатор : 184004461257828497720925401447224064884 (0x8A6DF85DF5FC6D088483A2597A4C3B74)
Полное имя : E:СериалыMoskovskaya.borzaya.2015.WEB-DLRip(AVC).ExKinoRay1.Moskovskaya.borzaya.2015.WEB-DLRip(AVC).ExKinoRay.mkv
Формат : Matroska
Версия формата : Version 2
Размер файла : 647 Мбайт
Продолжительность : 45 м.
Общий поток : 1994 Кбит/сек
Дата кодирования : UTC 2016-10-23 03:03:56
Программа кодирования : mkvmerge v6.1.0 ('Old Devil') built on Mar 4 2013 09:10:42
Библиотека кодирования : libebml v1.3.0 + libmatroska v1.4.0
Видео
Идентификатор : 1
Формат : AVC
Формат/Информация : Advanced Video Codec
Профиль формата : High@L4.1
Параметр CABAC формата : Да
Параметр ReFrames формата : 10 кадров
Идентификатор кодека : V_MPEG4/ISO/AVC
Продолжительность : 45 м.
Битрейт : 1800 Кбит/сек
Ширина : 1024 пикселя
Высота : 576 пикселей
Соотношение сторон : 16:9
Режим частоты кадров : Постоянный
Частота кадров : 25,000 кадров/сек
Цветовое пространство : YUV
Субдискретизация насыщенности : 4:2:0
Битовая глубина : 8 бит
Тип развёртки : Прогрессивная
Бит/(Пиксели*Кадры) : 0.122
Размер потока : 572 Мбайт (88%)
Библиотека кодирования : x264 core 130 r2273 b3065e6
Настройки программы : cabac=1 / ref=10 / deblock=1:-3:-3 / analyse=0x3:0x133 / me=umh / subme=10 / psy=1 / psy_rd=1.00:0.05 / mixed_ref=1 / me_range=48 / chroma_me=1 / trellis=2 / 8x8dct=1 / cqm=0 / deadzone=21,11 / fast_pskip=1 / chroma_qp_offset=-3 / threads=6 / lookahead_threads=1 / sliced_threads=0 / nr=0 / decimate=1 / interlaced=0 / bluray_compat=0 / constrained_intra=0 / bframes=10 / b_pyramid=2 / b_adapt=2 / b_bias=0 / direct=3 / weightb=1 / open_gop=0 / weightp=2 / keyint=250 / keyint_min=25 / scenecut=40 / intra_refresh=0 / rc_lookahead=60 / rc=2pass / mbtree=1 / bitrate=1800 / ratetol=1.0 / qcomp=0.60 / qpmin=0 / qpmax=69 / qpstep=4 / cplxblur=20.0 / qblur=0.5 / ip_ratio=1.40 / aq=1:1.00
Default : Да
Forced : Нет
Аудио
Идентификатор : 2
Формат : AC-3
Формат/Информация : Audio Coding 3
Расширение режима : CM (complete main)
Параметр Endianness формата : Big
Идентификатор кодека : A_AC3
Продолжительность : 45 м.
Вид битрейта : Постоянный
Битрейт : 192 Кбит/сек
Каналы : 2 канала
Расположение каналов : Front: L R
Частота : 48,0 КГц
Битовая глубина : 16 бит
Метод сжатия : С потерями
Размер потока : 62,3 Мбайт (10%)
Default : Да
Forced : Нет

Скриншоты

[Цитировать]



Показать сообщения:    

Текущее время: 29-Сен 06:44

Часовой пояс: UTC + 6


Вы не можете начинать темы
Вы не можете отвечать на сообщения
Вы не можете редактировать свои сообщения
Вы не можете удалять свои сообщения
Вы не можете голосовать в опросах
Вы не можете прикреплять файлы к сообщениям
Вы не можете скачивать файлы

!ВНИМАНИЕ!
Сайт не предоставляет электронные версии произведений, а занимается лишь коллекционированием и каталогизацией ссылок, присылаемых и публикуемых на форуме нашими читателями. Если вы являетесь правообладателем какого-либо представленного материала и не желаете, чтобы ссылка на него находилась в нашем каталоге, свяжитесь с нами, и мы незамедлительно удалим ее. Файлы для обмена на трекере предоставлены пользователями сайта, и администрация не несет ответственности за их содержание. Просьба не заливать файлы, защищенные авторскими правами, а также файлы нелегального содержания!