***Уважаемые пользователи и гости !!! Сайт переехал на новый домен Torrents-club.info. Просьба изменить ваши закладки! ***
 
[ Сегодня идет свободное скачивание без начисления Download ]


Статистика раздачи
Нет
 
   
 
 
 
 
Рожденный четвертого июля / Born on the Fourth of July Название: Рожденный четвертого июля
Оригинальное название: Born on the Fourth of July
Год выхода: 1989
Жанр: драма, военный, биография
Режиссер: Оливер Стоун
В ролях: Том Круз, Уиллем Дефо, Кира Седжвик, Рэймонд Дж. Бэрри, Джерри Ливайн, Фрэнк Уэйли, Джон Гец, Боб Гантон, Марк Мозес, Кэролайн Кэва
О фильме:
Фильм, основанный на реальных фактах, рассказывает историю жизни ветерана по имени Рон Ковик. Наивным школьником он записывается добровольцем в армию и, пройдя через ад вьетнамской войны, возвращается домой парализованным калекой. Этот мужественный человек посвящает свою жизнь борьбе с самым страшным врагом человечества — войной.

Страна: США
Студия: Ixtlan Corporation
Продолжительность: 02:24:08
Перевод: Профессиональный (дублированный) R5 + Профессиональный (многоголосый, закадровый) С.Р.И. + Профессиональный (многоголосый, закадровый) Премьер Видео Фильм + Профессиональный (многоголосый, закадровый) Первый Канал + Профессиональный (многоголосый, закадровый) ТК Россия + Авторский (одноголосый, закадровый) А.Гаврилов + Авторский (одноголосый, закадровый) Е.Гаевский
Формат: Matroska
Качество: BDRip 1080p
Видео: 1918x816 (2,35:1) at 23.976 fps, x264@L4.1, ~14000 kbps avg
Аудио#1: Russian: 48 kHz, AC3, 3/2 (L,C,R,l,r) + LFE ch, ~384 kbps |Дубляж, R5|
Аудио#2: Russian: 48 kHz, AC3, 3/2 (L,C,R,l,r) + LFE ch, ~448 kbps |Многоголосый закадровый, С.Р.И.|
Аудио#3: Russian: 48 kHz, AC3, 2/0 (L,R) ch, ~192 kbps |Многоголосый закадровый, Премьер Видео Фильм|
Аудио#4: Russian: 48 kHz, AC3, 2/0 (L,R) ch, ~192 kbps |Многоголосый закадровый, Первый Канал|
Аудио#5: Russian: 48 kHz, AC3, 2/0 (L,R) ch, ~192 kbps |Многоголосый закадровый, ТК Россия|
Аудио#6: Russian: 48 kHz, DTS, 3/2 (L,C,R,l,r) + LFE ch, ~1509 kbps |Авторский, А.Гаврилов|
Аудио#7: Russian: 48 kHz, DTS, 3/2 (L,C,R,l,r) + LFE ch, ~1509 kbps |Авторский, Е.Гаевский|
Аудио#8: English: 48 kHz, DTS, 3/2 (L,C,R,l,r) + LFE ch, ~1509 kbps
Субтитры: Russian (Forced, Full), English
***Сохранены и подписаны оригинальные главы как на Blu-ray.
***Озвучка Е.Гаевского по переводу А.Завгороднего доступна благодаря ресурсу "Переулок Переводмана". Работа со звуком: DREADG.
***Видеоряд - CRiSC, сборка - igrok2012.

MI

Общее
Уникальный идентификатор : 170445974610130370908335492253368797988 (0x803AB35D27D57150B236C9ACD6E14B24)
Полное имя : Born.on.the.Fourth.of.July.1989.1080p.BluRay.7xRus.Eng.x264.mkv
Формат : Matroska
Версия формата : Version 2
Размер файла : 20,1 Гбайт
Продолжительность : 2 ч. 24 м.
Общий поток : 19,9 Мбит/сек
Название фильма : Born.on.the.Fourth.of.July.1989.1080p | igrok2012
Дата кодирования : UTC 2016-08-05 16:24:01
Программа кодирования : mkvmerge v8.3.0 ('Over the Horizon') 64bit
Библиотека кодирования : libebml v1.3.1 + libmatroska v1.4.2
Attachment : Yes
Видео
Идентификатор : 1
Формат : AVC
Формат/Информация : Advanced Video Codec
Профиль формата : High@L4.1
Параметр CABAC формата : Да
Параметр ReFrames формата : 5 кадров
Идентификатор кодека : V_MPEG4/ISO/AVC
Продолжительность : 2 ч. 24 м.
Битрейт : 14,0 Мбит/сек
Ширина : 1918 пикселей
Высота : 816 пикселей
Соотношение сторон : 2,35:1
Режим частоты кадров : Постоянный
Частота кадров : 23,976 кадра/сек
Цветовое пространство : YUV
Субдискретизация насыщенности : 4:2:0
Битовая глубина : 8 бит
Тип развёртки : Прогрессивная
Бит/(Пиксели*Кадры) : 0.373
Размер потока : 13,7 Гбайт (68%)
Заголовок : Encode by CRiSC
Библиотека кодирования : x264 core 116 r2044 392e762
Настройки программы : cabac=1 / ref=5 / deblock=1:-3:-3 / analyse=0x3:0x133 / me=umh / subme=11 / psy=1 / psy_rd=1.10:0.00 / mixed_ref=1 / me_range=64 / chroma_me=1 / trellis=2 / 8x8dct=1 / cqm=0 / deadzone=21,11 / fast_pskip=0 / chroma_qp_offset=-2 / threads=12 / sliced_threads=0 / nr=0 / decimate=0 / interlaced=0 / bluray_compat=0 / constrained_intra=0 / bframes=11 / b_pyramid=2 / b_adapt=2 / b_bias=0 / direct=3 / weightb=1 / open_gop=0 / weightp=2 / keyint=250 / keyint_min=23 / scenecut=40 / intra_refresh=0 / rc_lookahead=40 / rc=2pass / mbtree=0 / bitrate=14000 / ratetol=1.0 / qcomp=0.70 / qpmin=0 / qpmax=69 / qpstep=4 / cplxblur=20.0 / qblur=0.5 / vbv_maxrate=50000 / vbv_bufsize=62500 / nal_hrd=none / ip_ratio=1.40 / pb_ratio=1.30 / aq=1:0.80
Язык : English
Default : Да
Forced : Нет
Основные цвета : BT.709
Характеристики трансфера : BT.709
Коэффициенты матрицы : BT.709
Аудио #1
Идентификатор : 2
Формат : AC-3
Формат/Информация : Audio Coding 3
Расширение режима : CM (complete main)
Параметр Endianness формата : Big
Идентификатор кодека : A_AC3
Продолжительность : 2 ч. 24 м.
Вид битрейта : Постоянный
Битрейт : 384 Кбит/сек
Каналы : 6 каналов
Расположение каналов : Front: L C R, Side: L R, LFE
Частота : 48,0 КГц
Битовая глубина : 16 бит
Метод сжатия : С потерями
Размер потока : 396 Мбайт (2%)
Заголовок : Дубляж
Язык : Russian
Default : Да
Forced : Нет
Аудио #2
Идентификатор : 3
Формат : AC-3
Формат/Информация : Audio Coding 3
Расширение режима : CM (complete main)
Параметр Endianness формата : Big
Идентификатор кодека : A_AC3
Продолжительность : 2 ч. 24 м.
Вид битрейта : Постоянный
Битрейт : 448 Кбит/сек
Каналы : 6 каналов
Расположение каналов : Front: L C R, Side: L R, LFE
Частота : 48,0 КГц
Битовая глубина : 16 бит
Метод сжатия : С потерями
Размер потока : 462 Мбайт (2%)
Заголовок : Многоголосый закадровый, С.Р.И.
Язык : Russian
Default : Нет
Forced : Нет
Аудио #3
Идентификатор : 4
Формат : AC-3
Формат/Информация : Audio Coding 3
Расширение режима : CM (complete main)
Параметр Endianness формата : Big
Идентификатор кодека : A_AC3
Продолжительность : 2 ч. 24 м.
Вид битрейта : Постоянный
Битрейт : 192 Кбит/сек
Каналы : 2 канала
Расположение каналов : Front: L R
Частота : 48,0 КГц
Битовая глубина : 16 бит
Метод сжатия : С потерями
Размер потока : 198 Мбайт (1%)
Заголовок : Многоголосый закадровый, Премьер Видео Фильм
Язык : Russian
Default : Нет
Forced : Нет
Аудио #4
Идентификатор : 5
Формат : AC-3
Формат/Информация : Audio Coding 3
Расширение режима : CM (complete main)
Параметр Endianness формата : Big
Идентификатор кодека : A_AC3
Продолжительность : 2 ч. 24 м.
Вид битрейта : Постоянный
Битрейт : 192 Кбит/сек
Каналы : 2 канала
Расположение каналов : Front: L R
Частота : 48,0 КГц
Битовая глубина : 16 бит
Метод сжатия : С потерями
Размер потока : 198 Мбайт (1%)
Заголовок : Многоголосый закадровый, Первый Канал
Язык : Russian
Default : Нет
Forced : Нет
Аудио #5
Идентификатор : 6
Формат : AC-3
Формат/Информация : Audio Coding 3
Расширение режима : CM (complete main)
Параметр Endianness формата : Big
Идентификатор кодека : A_AC3
Продолжительность : 2 ч. 24 м.
Вид битрейта : Постоянный
Битрейт : 192 Кбит/сек
Каналы : 2 канала
Расположение каналов : Front: L R
Частота : 48,0 КГц
Битовая глубина : 16 бит
Метод сжатия : С потерями
Размер потока : 198 Мбайт (1%)
Заголовок : Многоголосый закадровый, ТК Россия
Язык : Russian
Default : Нет
Forced : Нет
Аудио #6
Идентификатор : 7
Формат : DTS
Формат/Информация : Digital Theater Systems
Режим : 16
Параметр Endianness формата : Big
Идентификатор кодека : A_DTS
Продолжительность : 2 ч. 24 м.
Вид битрейта : Постоянный
Битрейт : 1509 Кбит/сек
Каналы : 6 каналов
Расположение каналов : Front: L C R, Side: L R, LFE
Частота : 48,0 КГц
Битовая глубина : 24 бит
Метод сжатия : С потерями
Размер потока : 1,52 Гбайт (8%)
Заголовок : Одноголосый закадровый, А.Гаврилов
Язык : Russian
Default : Нет
Forced : Нет
Аудио #7
Идентификатор : 8
Формат : DTS
Формат/Информация : Digital Theater Systems
Режим : 16
Параметр Endianness формата : Big
Идентификатор кодека : A_DTS
Продолжительность : 2 ч. 24 м.
Вид битрейта : Постоянный
Битрейт : 1509 Кбит/сек
Каналы : 6 каналов
Расположение каналов : Front: L C R, Side: L R, LFE
Частота : 48,0 КГц
Битовая глубина : 24 бит
Метод сжатия : С потерями
Размер потока : 1,52 Гбайт (8%)
Заголовок : Одноголосый закадровый, Е.Гаевский (перевод А.Завгороднего)
Язык : Russian
Default : Нет
Forced : Нет
Аудио #8
Идентификатор : 9
Формат : DTS
Формат/Информация : Digital Theater Systems
Режим : 16
Параметр Endianness формата : Big
Идентификатор кодека : A_DTS
Продолжительность : 2 ч. 24 м.
Вид битрейта : Постоянный
Битрейт : 1509 Кбит/сек
Каналы : 6 каналов
Расположение каналов : Front: L C R, Side: L R, LFE
Частота : 48,0 КГц
Битовая глубина : 24 бит
Метод сжатия : С потерями
Размер потока : 1,52 Гбайт (8%)
Язык : English
Default : Нет
Forced : Нет
Текст #1
Идентификатор : 10
Формат : UTF-8
Идентификатор кодека : S_TEXT/UTF8
Идентификатор кодека/Информация : UTF-8 Plain Text
Заголовок : Forced (А.Завгородний)
Язык : Russian
Default : Да
Forced : Нет
Текст #2
Идентификатор : 11
Формат : UTF-8
Идентификатор кодека : S_TEXT/UTF8
Идентификатор кодека/Информация : UTF-8 Plain Text
Заголовок : Full (Stalk)
Язык : Russian
Default : Нет
Forced : Нет
Текст #3
Идентификатор : 12
Формат : UTF-8
Идентификатор кодека : S_TEXT/UTF8
Идентификатор кодека/Информация : UTF-8 Plain Text
Заголовок : BD SDH
Язык : English
Default : Нет
Forced : Нет
Текст #4
Идентификатор : 13
Формат : UTF-8
Идентификатор кодека : S_TEXT/UTF8
Идентификатор кодека/Информация : UTF-8 Plain Text
Заголовок : HDDVD
Язык : English
Default : Нет
Forced : Нет
Меню
00:00:00.000 : en: 1. The Yankee Doodle Boy (Main Titles)
00:16:28.905 : en: 2. The Right Decision
00:27:36.488 : en: 3. Vietnam
00:32:06.758 : en: 4. The Wrong Man
00:37:26.119 : en: 5. A Casualty of War
00:44:53.024 : en: 6. The Veterans Hospital
00:58:56.074 : en: 7. Home Again
01:08:42.160 : en: 8. The Local Hero
01:20:22.151 : en: 9. Donna''s World
01:29:01.336 : en:10. The Wrong War
01:33:57.048 : en:11. All for Nothing
01:39:29.130 : en:12. Mexico
01:56:53.965 : en:13. Wilson''s Family
02:05:47.165 : en:14. The Rebel
02:15:07.766 : en:15. Maybe We''re Home
02:18:09.281 : en:16. End Titles

Скриншоты


[Цитировать]

Топик был перенесен из форума Зарубежное кино (HD Video) в форум Классика зарубежного кино (HD Video)
Scorpio



Показать сообщения:    

Текущее время: 27-Сен 22:09

Часовой пояс: UTC + 6


Вы не можете начинать темы
Вы не можете отвечать на сообщения
Вы не можете редактировать свои сообщения
Вы не можете удалять свои сообщения
Вы не можете голосовать в опросах
Вы не можете прикреплять файлы к сообщениям
Вы не можете скачивать файлы

!ВНИМАНИЕ!
Сайт не предоставляет электронные версии произведений, а занимается лишь коллекционированием и каталогизацией ссылок, присылаемых и публикуемых на форуме нашими читателями. Если вы являетесь правообладателем какого-либо представленного материала и не желаете, чтобы ссылка на него находилась в нашем каталоге, свяжитесь с нами, и мы незамедлительно удалим ее. Файлы для обмена на трекере предоставлены пользователями сайта, и администрация не несет ответственности за их содержание. Просьба не заливать файлы, защищенные авторскими правами, а также файлы нелегального содержания!