***Уважаемые пользователи и гости !!! Сайт переехал на новый домен Torrents-club.info. Просьба изменить ваши закладки! ***
 
[ Сегодня идет свободное скачивание без начисления Download ]


Статистика раздачи
Нет
 
   
 
 
 
 
Слияние двух лун / Two Moon Junction Название: Слияние двух лун
Оригинальное название: Two Moon Junction
Год выхода: 1988
Страна: США
Студия: DDM Film Corporation, Lorimar Motion Pictures, Planet Productions
Продолжительность: 01:45:02
Жанр: драма, мелодрама, ...
Режиссер: Залман Кинг
В ролях: Шерилин Фенн, Ричард Тайсон, Луиз Флетчер, Бёрл Айвз, Кристи МакНикол, Дон Гэллоуэй, Дэббс Грир, Мартин Хьюитт, Хуанита Мур, Милли Перкинс, Эрве Вильчэйз, Милла Йовович, ...
Перевод:
- Профессиональный (двухголосый, закадровый) НТВ+ (Ирина Маликова, Александр Гаврилов)
- Любительский (двухголосый, закадровый) Визгунов Сергей и подруга
- Профессиональный (многоголосный, закадровый) СВ-Дубль
- Авторский (одноголосый, закадровый) Медведев Алексeй Анатольевич
- Любительский (одноголосый, закадровый) ?
О фильме: Жизнь юной и обворожительной Эйприл похожа на прекрасную сказку — знатные родители, шикарный дом, бабушка — миллионерша и респектабельных жених из богатой аристократической семьи. В высшем обществе они считаются идеальной парой.
Но за две недели до свадьбы Эйприл, беспокойная и чувственная натура, влюбляется в загадочного мускулистого красавца Перри, работающего в приехавшем в город передвижном парке аттракционов, и они с головой окунаются в омут всепоглощающей страсти…

Кодек: x264
Качество: BDRip 1080p
Видео: 1920x1040, 14000 kbps, 23,976 fps
Аудио #1: AC-3, 2 ch, 192 kbps (Rus) - DVO НТВ+
Аудио #2: AC-3, 2 ch, 192 kbps (Rus) - DVOL Визгунов Сергей и подруга
Аудио #3: AC-3, 2 ch, 192 kbps (Rus) - MVO СВ-Дубль
Аудио #4: AC-3, 2 ch, 192 kbps (Rus) - AVO Медведев Алексeй Анатольевич
Аудио #5: AC-3, 2 ch, 192 kbps (Rus) - VO Женский голос
Аудио #6: DTS, 2 ch, 1509 kbps (Eng)
Субтитры: Английские (SDH)

MediaInfo

x264 [info]: frame I:749 Avg QP:19.73 size:216423
x264 [info]: frame P:28339 Avg QP:21.74 size:100794
x264 [info]: frame B:122017 Avg QP:23.67 size: 65603
x264 [info]: consecutive B-frames: 1.0% 1.7% 4.1% 10.7% 10.2% 55.9% 7.2% 1.5% 3.8% 0.6% 1.3% 1.6% 0.4%
Общее
Уникальный идентификатор : 221250366578375612819267197540507919306 (0xA67345475A1AA94280B84B9E394123CA)
Полное имя : Слияние двух лун (Two Moon Junction) 1988 BDRip 1080p.mkv
Формат : Matroska
Версия формата : Version 2
Размер файла : 12,1 Гбайт
Продолжительность : 1 ч. 45 м.
Общий поток : 16,5 Мбит/сек
Дата кодирования : UTC 2016-10-31 14:08:19
Программа кодирования : mkvmerge v4.0.0 ('The Stars were mine') сборка от Jun 6 2010 16:18:42
Библиотека кодирования : libebml v1.0.0 + libmatroska v1.0.0
Видео
Идентификатор : 1
Формат : AVC
Формат/Информация : Advanced Video Codec
Профиль формата : High@L4.1
Параметр CABAC формата : Да
Параметр ReFrames формата : 4 кадра
Идентификатор кодека : V_MPEG4/ISO/AVC
Продолжительность : 1 ч. 45 м.
Битрейт : 14,0 Мбит/сек
Ширина : 1920 пикселей
Высота : 1040 пикселей
Соотношение сторон : 1,85:1
Режим частоты кадров : Постоянный
Частота кадров : 23,976 (24000/1001) кадра/сек
Цветовое пространство : YUV
Субдискретизация насыщенности : 4:2:0
Битовая глубина : 8 бит
Тип развёртки : Прогрессивная
Бит/(Пиксели*Кадры) : 0.292
Размер потока : 10,0 Гбайт (83%)
Библиотека кодирования : x264 core 146 r2538 121396c
Настройки программы : cabac=1 / ref=4 / deblock=1:-3:-3 / analyse=0x3:0x133 / me=umh / subme=11 / psy=1 / psy_rd=1.10:0.16 / mixed_ref=1 / me_range=32 / chroma_me=1 / trellis=2 / 8x8dct=1 / cqm=0 / deadzone=21,11 / fast_pskip=0 / chroma_qp_offset=-3 / threads=12 / lookahead_threads=2 / sliced_threads=0 / nr=0 / decimate=0 / interlaced=0 / bluray_compat=0 / constrained_intra=0 / bframes=12 / b_pyramid=2 / b_adapt=2 / b_bias=0 / direct=3 / weightb=1 / open_gop=0 / weightp=2 / keyint=240 / keyint_min=23 / scenecut=40 / intra_refresh=0 / rc_lookahead=60 / rc=2pass / mbtree=0 / bitrate=14000 / ratetol=1.0 / qcomp=0.60 / qpmin=0 / qpmax=69 / qpstep=4 / cplxblur=20.0 / qblur=0.5 / vbv_maxrate=50000 / vbv_bufsize=62500 / nal_hrd=none / filler=0 / ip_ratio=1.40 / pb_ratio=1.30 / aq=1:0.90
Язык : English
Default : Нет
Forced : Нет
Аудио #1
Идентификатор : 2
Формат : AC-3
Формат/Информация : Audio Coding 3
Расширение режима : CM (complete main)
Параметр Endianness формата : Big
Идентификатор кодека : A_AC3
Продолжительность : 1 ч. 45 м.
Вид битрейта : Постоянный
Битрейт : 192 Кбит/сек
Каналы : 2 канала
Расположение каналов : Front: L R
Частота : 48,0 КГц
Частота кадров : 31,250 кадров/сек (1536 spf)
Метод сжатия : С потерями
Размер потока : 144 Мбайт (1%)
Заголовок : DVO НТВ+
Язык : Russian
Default : Нет
Forced : Нет
Аудио #2
Идентификатор : 3
Формат : AC-3
Формат/Информация : Audio Coding 3
Расширение режима : CM (complete main)
Параметр Endianness формата : Big
Идентификатор кодека : A_AC3
Продолжительность : 1 ч. 45 м.
Вид битрейта : Постоянный
Битрейт : 192 Кбит/сек
Каналы : 2 канала
Расположение каналов : Front: L R
Частота : 48,0 КГц
Частота кадров : 31,250 кадров/сек (1536 spf)
Метод сжатия : С потерями
Размер потока : 144 Мбайт (1%)
Заголовок : DVOL Визгунов Сергей и подруга
Язык : Russian
Default : Нет
Forced : Нет
Аудио #3
Идентификатор : 4
Формат : AC-3
Формат/Информация : Audio Coding 3
Расширение режима : CM (complete main)
Параметр Endianness формата : Big
Идентификатор кодека : A_AC3
Продолжительность : 1 ч. 45 м.
Вид битрейта : Постоянный
Битрейт : 192 Кбит/сек
Каналы : 2 канала
Расположение каналов : Front: L R
Частота : 48,0 КГц
Частота кадров : 31,250 кадров/сек (1536 spf)
Метод сжатия : С потерями
Размер потока : 144 Мбайт (1%)
Заголовок : MVO СВ-Дубль
Язык : Russian
Default : Нет
Forced : Нет
Аудио #4
Идентификатор : 5
Формат : AC-3
Формат/Информация : Audio Coding 3
Расширение режима : CM (complete main)
Параметр Endianness формата : Big
Идентификатор кодека : A_AC3
Продолжительность : 1 ч. 45 м.
Вид битрейта : Постоянный
Битрейт : 192 Кбит/сек
Каналы : 2 канала
Расположение каналов : Front: L R
Частота : 48,0 КГц
Частота кадров : 31,250 кадров/сек (1536 spf)
Метод сжатия : С потерями
Размер потока : 144 Мбайт (1%)
Заголовок : AVO Медведев Алексeй Анатольевич
Язык : Russian
Default : Нет
Forced : Нет
Аудио #5
Идентификатор : 6
Формат : AC-3
Формат/Информация : Audio Coding 3
Расширение режима : CM (complete main)
Параметр Endianness формата : Big
Идентификатор кодека : A_AC3
Продолжительность : 1 ч. 45 м.
Вид битрейта : Постоянный
Битрейт : 192 Кбит/сек
Каналы : 2 канала
Расположение каналов : Front: L R
Частота : 48,0 КГц
Частота кадров : 31,250 кадров/сек (1536 spf)
Метод сжатия : С потерями
Размер потока : 144 Мбайт (1%)
Заголовок : VO Женский голос
Язык : Russian
Default : Нет
Forced : Нет
Аудио #6
Идентификатор : 7
Формат : DTS
Формат/Информация : Digital Theater Systems
Режим : 16
Параметр Endianness формата : Big
Идентификатор кодека : A_DTS
Продолжительность : 1 ч. 45 м.
Вид битрейта : Постоянный
Битрейт : 1509 Кбит/сек
Каналы : 2 канала
Расположение каналов : Front: L R
Частота : 48,0 КГц
Частота кадров : 93,750 кадра/сек (512 spf)
Битовая глубина : 24 бит
Метод сжатия : С потерями
Размер потока : 1,11 Гбайт (9%)
Язык : English
Default : Нет
Forced : Нет
Текст
Идентификатор : 8
Формат : UTF-8
Идентификатор кодека : S_TEXT/UTF8
Идентификатор кодека/Информация : UTF-8 Plain Text
Заголовок : SDH
Язык : English
Default : Нет
Forced : Нет

Скриншоты


[Цитировать]



Показать сообщения:    

Текущее время: 27-Сен 23:28

Часовой пояс: UTC + 6


Вы не можете начинать темы
Вы не можете отвечать на сообщения
Вы не можете редактировать свои сообщения
Вы не можете удалять свои сообщения
Вы не можете голосовать в опросах
Вы не можете прикреплять файлы к сообщениям
Вы не можете скачивать файлы

!ВНИМАНИЕ!
Сайт не предоставляет электронные версии произведений, а занимается лишь коллекционированием и каталогизацией ссылок, присылаемых и публикуемых на форуме нашими читателями. Если вы являетесь правообладателем какого-либо представленного материала и не желаете, чтобы ссылка на него находилась в нашем каталоге, свяжитесь с нами, и мы незамедлительно удалим ее. Файлы для обмена на трекере предоставлены пользователями сайта, и администрация не несет ответственности за их содержание. Просьба не заливать файлы, защищенные авторскими правами, а также файлы нелегального содержания!