***Уважаемые пользователи и гости !!! Сайт переехал на новый домен Torrents-club.info. Просьба изменить ваши закладки! ***
 
[ Сегодня идет свободное скачивание без начисления Download ]


Статистика раздачи
Скачал: [ 1 ]
 
   
 
 
 
 
Земное ядро / The Core (2003) Информация о фильме
Название: Земное ядро
Оригинальное название: The Core
Год выхода: 2003
Жанр: фантастика, боевик, триллер, приключения
Режиссер: Джон Эмиел
В ролях: Аарон Экхарт, Хилари Суэнк, Делрой Линдо, Стэнли Туччи, DJ Куаллс, Ричард Дженкинс, Чеки Карио, Брюс Гринвуд, Элфри Вудард, Кристофер Шайер
О фильме: Герой картины, геофизик Джош Кийз, сделал шокирующее открытие: ядро земли перестало вращаться. Электромагнитное поле нашей планеты разрушается, и скоро Земля погибнет!
Есть лишь одна надежда: Кийз с командой первоклассных ученых отправится в экспедицию к остановившемуся ядру на уникальном термостойком корабле, чтобы… взорвать ядерный заряд. Этот взрыв должен будет заставить вращаться злополучное ядро, и человечество будет спасено! Путешествие к центру Земли начинается!
Скачать: сэмпл
Выпущено: Paramount Pictures
Продолжительность: 02:14:58
Перевод: Дублированный (лицензия)
Файл
Кодек: x264
Качество: BDRip (источник: Blu-ray Disc)
Видео: 1920x816 (2,35:1), 23.976 fps, 5470 kbps
Аудио #1: AC-3, 2 ch, 192 kbps (Rus)
Аудио #2: AC-3, 6 ch, 448 kbps (Eng)
Субтитры: Русские, Английские

MI

Общее
Уникальный идентификатор : 198720005169463703485931623825504110944 (0x958014B29DB9CFF784BB21B8004A8960)
Полное имя : The.Core.2003.BDRip.1080p.Rus.Eng.mkv
Формат : Matroska
Версия формата : Version 2
Размер файла : 5,76 Гбайт
Продолжительность : 2 ч. 14 м.
Общий поток : 6112 Кбит/сек
Название фильма : Земное ядро / The Core (2003)
Дата кодирования : UTC 2012-10-03 14:27:03
Программа кодирования : mkvmerge v5.8.0 ('No Sleep / Pillow') built on Sep 2 2012 15:37:04
Библиотека кодирования : libebml v1.2.3 + libmatroska v1.3.0
Видео
Идентификатор : 1
Формат : AVC
Формат/Информация : Advanced Video Codec
Профиль формата : High@L4.1
Параметр CABAC формата : Да
Параметр ReFrames формата : 5 кадров
Идентификатор кодека : V_MPEG4/ISO/AVC
Продолжительность : 2 ч. 14 м.
Битрейт : 5470 Кбит/сек
Ширина : 1920 пикселей
Высота : 816 пикселей
Соотношение сторон : 2,35:1
Частота кадров : 23,976 кадра/сек
Цветовое пространство : YUV
Субдискретизация насыщенности : 4:2:0
Битовая глубина : 8 бит
Тип развёртки : Прогрессивная
Бит/(Пиксели*Кадры) : 0.146
Размер потока : 5,04 Гбайт (88%)
Заголовок : Release by AlexKa
Библиотека кодирования : x264 core 128 r2216 198a7ea
Настройки программы : cabac=1 / ref=5 / deblock=1:-3:-3 / analyse=0x3:0x133 / me=umh / subme=10 / psy=1 / psy_rd=1.00:0.10 / mixed_ref=1 / me_range=32 / chroma_me=1 / trellis=2 / 8x8dct=1 / cqm=0 / deadzone=21,11 / fast_pskip=0 / chroma_qp_offset=-3 / threads=12 / lookahead_threads=2 / sliced_threads=0 / nr=0 / decimate=0 / interlaced=0 / bluray_compat=0 / constrained_intra=0 / bframes=5 / b_pyramid=2 / b_adapt=2 / b_bias=0 / direct=3 / weightb=1 / open_gop=0 / weightp=2 / keyint=240 / keyint_min=23 / scenecut=40 / intra_refresh=0 / rc=2pass / mbtree=0 / bitrate=5470 / ratetol=1.0 / qcomp=0.60 / qpmin=0 / qpmax=69 / qpstep=4 / cplxblur=20.0 / qblur=0.5 / ip_ratio=1.40 / pb_ratio=1.30 / aq=1:0.80
Язык : English
Аудио #1
Идентификатор : 2
Формат : AC-3
Формат/Информация : Audio Coding 3
Профиль формата : Dolby Digital
Расширение режима : CM (complete main)
Идентификатор кодека : A_AC3
Продолжительность : 2 ч. 14 м.
Вид битрейта : Постоянный
Битрейт : 192 Кбит/сек
Каналы : 2 канала
Расположение каналов : Front: L R
Частота : 48,0 КГц
Битовая глубина : 16 бит
Метод сжатия : С потерями
Размер потока : 185 Мбайт (3%)
Заголовок : Rus
Язык : Russian
Аудио #2
Идентификатор : 3
Формат : AC-3
Формат/Информация : Audio Coding 3
Расширение режима : CM (complete main)
Идентификатор кодека : A_AC3
Продолжительность : 2 ч. 14 м.
Вид битрейта : Постоянный
Битрейт : 448 Кбит/сек
Каналы : 6 каналов
Расположение каналов : Front: L C R, Side: L R, LFE
Частота : 48,0 КГц
Битовая глубина : 16 бит
Метод сжатия : С потерями
Размер потока : 432 Мбайт (7%)
Заголовок : Eng
Язык : English
Текст #1
Идентификатор : 4
Формат : UTF-8
Идентификатор кодека : S_TEXT/UTF8
Идентификатор кодека/Информация : UTF-8 Plain Text
Заголовок : Rus
Язык : Russian
Текст #2
Идентификатор : 5
Формат : UTF-8
Идентификатор кодека : S_TEXT/UTF8
Идентификатор кодека/Информация : UTF-8 Plain Text
Заголовок : Eng
Язык : English
Меню
00:00:00.000 : :Chapter 01
00:07:12.807 : :Chapter 02
00:11:09.001 : :Chapter 03
00:18:15.260 : :Chapter 04
00:27:57.342 : :Chapter 05
00:32:53.971 : :Chapter 06
00:35:58.489 : :Chapter 07
00:40:12.993 : :Chapter 08
00:47:26.760 : :Chapter 09
00:50:08.463 : :Chapter 10
01:01:19.592 : :Chapter 11
01:11:50.055 : :Chapter 12
01:22:25.899 : :Chapter 13
01:29:28.196 : :Chapter 14
01:33:43.034 : :Chapter 15
01:39:00.643 : :Chapter 16
01:44:38.355 : :Chapter 17
01:52:21.109 : :Chapter 18
01:58:07.246 : :Chapter 19
02:03:58.013 : :Chapter 20
02:14:57.506 : :Chapter 21
Скриншоты:

[Цитировать]

на 4 фильм

[Цитировать]



Показать сообщения:    

Текущее время: 25-Май 11:45

Часовой пояс: UTC + 6


Вы не можете начинать темы
Вы не можете отвечать на сообщения
Вы не можете редактировать свои сообщения
Вы не можете удалять свои сообщения
Вы не можете голосовать в опросах
Вы не можете прикреплять файлы к сообщениям
Вы не можете скачивать файлы

!ВНИМАНИЕ!
Сайт не предоставляет электронные версии произведений, а занимается лишь коллекционированием и каталогизацией ссылок, присылаемых и публикуемых на форуме нашими читателями. Если вы являетесь правообладателем какого-либо представленного материала и не желаете, чтобы ссылка на него находилась в нашем каталоге, свяжитесь с нами, и мы незамедлительно удалим ее. Файлы для обмена на трекере предоставлены пользователями сайта, и администрация не несет ответственности за их содержание. Просьба не заливать файлы, защищенные авторскими правами, а также файлы нелегального содержания!