***Уважаемые пользователи и гости !!! Сайт переехал на новый домен Torrents-club.info. Просьба изменить ваши закладки! ***
 
[ Сегодня идет свободное скачивание без начисления Download ]


Статистика раздачи
Нет
 
   
 
 
 
 
Эльвира: Повелительница тьмы / Elvira: Mistress of the Dark Название: Эльвира: Повелительница тьмы
Оригинальное название: Elvira: Mistress of the Dark
Год выхода: 1988
Страна: США
Студия: NBC Productions, New World Pictures, Panacea Entertainment
Продолжительность: 01:32:32
Жанр: комедия, фэнтези, ужасы
Режиссер: Джеймс Синьорелли
В ролях: Кассандра Петерсон, Уильям Морган Шеппард, Дэниэл Грин, Сьюзэн Келлерман, Джефф Конэвей, Эди МакКлёрг, Уильям Дюэл, Фил Рубенштейн, Ларри Флэш Дженкинс, Дамита Джо Фриман, Тресс МакНилл, Эдвина Мур, Ли МакЛафлин, ...
Перевод:
- Профессиональный (многоголосный, закадровый) R5 c DVD9 16:9
- Профессиональный (двухголосый, закадровый) с DVD5 4:3
- Авторский (одноголосый, закадровый) Яроцкий Михаил
- Авторский (одноголосый, закадровый) женский голос с кинотеатра
- Авторский (одноголосый, закадровый) Петербуржец
- Субтитры
О фильме: На телезвезду Эльвиру неожиданно обрушивается наследство в виде тетушкиного поместья в маленьком городишке. Местное население при виде Эльвиры в сногсшибательном платье со сногсшибательным декольте испытывает настоящий шок. Женская половина обитателей города приходит в негодование, мужская — в восторг. Но Эльвира дает отпор не только местным ханжам, но и зловещему Князю Тьмы, оказавшемуся здесь же…

Кодек: x264
Качество: DVDRip-AVC
Видео: 748x572, 3300 kbps, 25 fps
Аудио #1: AC-3, 6 ch, 448 kbps (Rus) - AVO Яроцкий Михаил (kyberpunk)
Аудио #2: AC-3, 6 ch, 384 kbps (Rus) - MVO R5 c DVD9 16:9
Аудио #3: AC-3, 2 ch, 224 kbps (Rus) - DVO с DVD5 4:3
Аудио #4: AC-3, 2 ch, 192 kbps (Rus) - AVO женский голос с кинотеатра
Аудио #5: AC-3, 2 ch, 192 kbps (Rus) - AVO Петербуржец
Аудио #6: AC-3, 6 ch, 448 kbps (Eng)
Субтитры: Русские, Английские

Дополнительная информация

За исходник спасибо - Гость
Сравнение версий:

MediaInfo

x264 [info]: frame I:1222 Avg QP:16.00 size: 86475
x264 [info]: frame P:36397 Avg QP:18.51 size: 34067
x264 [info]: frame B:101181 Avg QP:20.00 size: 9335
x264 [info]: consecutive B-frames: 3.4% 3.1% 27.8% 18.4% 11.9% 34.5% 0.7% 0.1% 0.0% 0.0% 0.0%
Общее
Уникальный идентификатор : 229608026719825730247120600906221678565 (0xACBCE5BCDE0D64AA945E832BE5AAEFE5)
Полное имя : Эльвира Повелительница тьмы (Elvira Mistress of the Dark) 1988 DVDRip.mkv
Формат : Matroska
Версия формата : Version 2
Размер файла : 3,36 Гбайт
Продолжительность : 1 ч. 32 м.
Общий поток : 5191 Кбит/сек
Дата кодирования : UTC 2017-01-27 14:23:26
Программа кодирования : mkvmerge v4.0.0 ('The Stars were mine') сборка от Jun 6 2010 16:18:42
Библиотека кодирования : libebml v1.0.0 + libmatroska v1.0.0
Видео
Идентификатор : 1
Формат : AVC
Формат/Информация : Advanced Video Codec
Профиль формата : High@L4.1
Параметр CABAC формата : Да
Параметр ReFrames формата : 12 кадров
Идентификатор кодека : V_MPEG4/ISO/AVC
Продолжительность : 1 ч. 32 м.
Битрейт : 3300 Кбит/сек
Ширина : 748 пикселей
Высота : 572 пикселя
Соотношение сторон : 4:3
Режим частоты кадров : Постоянный
Частота кадров : 25,000 кадров/сек
Цветовое пространство : YUV
Субдискретизация насыщенности : 4:2:0
Битовая глубина : 8 бит
Тип развёртки : Прогрессивная
Бит/(Пиксели*Кадры) : 0.309
Размер потока : 2,07 Гбайт (62%)
Библиотека кодирования : x264 core 146 r2538 121396c
Настройки программы : cabac=1 / ref=12 / deblock=1:1:1 / analyse=0x3:0x133 / me=umh / subme=11 / psy=1 / psy_rd=1.00:0.00 / mixed_ref=1 / me_range=32 / chroma_me=1 / trellis=2 / 8x8dct=1 / cqm=0 / deadzone=21,11 / fast_pskip=0 / chroma_qp_offset=-2 / threads=12 / lookahead_threads=4 / sliced_threads=0 / nr=0 / decimate=0 / interlaced=0 / bluray_compat=0 / constrained_intra=0 / bframes=10 / b_pyramid=2 / b_adapt=2 / b_bias=0 / direct=3 / weightb=1 / open_gop=0 / weightp=2 / keyint=250 / keyint_min=25 / scenecut=40 / intra_refresh=0 / rc=2pass / mbtree=0 / bitrate=3300 / ratetol=1.0 / qcomp=0.60 / qpmin=0 / qpmax=69 / qpstep=4 / cplxblur=20.0 / qblur=0.5 / ip_ratio=1.40 / pb_ratio=1.30 / aq=1:0.80
Язык : English
Default : Нет
Forced : Нет
Аудио #1
Идентификатор : 2
Формат : AC-3
Формат/Информация : Audio Coding 3
Расширение режима : CM (complete main)
Параметр Endianness формата : Big
Идентификатор кодека : A_AC3
Продолжительность : 1 ч. 32 м.
Вид битрейта : Постоянный
Битрейт : 448 Кбит/сек
Каналы : 6 каналов
Расположение каналов : Front: L C R, Side: L R, LFE
Частота : 48,0 КГц
Частота кадров : 31,250 кадров/сек (1536 spf)
Метод сжатия : С потерями
Размер потока : 297 Мбайт (9%)
Заголовок : AVO Яроцкий Михаил (kyberpunk)
Язык : Russian
Default : Нет
Forced : Нет
Аудио #2
Идентификатор : 3
Формат : AC-3
Формат/Информация : Audio Coding 3
Расширение режима : CM (complete main)
Параметр Endianness формата : Big
Идентификатор кодека : A_AC3
Продолжительность : 1 ч. 32 м.
Вид битрейта : Постоянный
Битрейт : 384 Кбит/сек
Каналы : 6 каналов
Расположение каналов : Front: L C R, Side: L R, LFE
Частота : 48,0 КГц
Частота кадров : 31,250 кадров/сек (1536 spf)
Метод сжатия : С потерями
Размер потока : 254 Мбайт (7%)
Заголовок : MVO R5 c DVD9 16:9
Язык : Russian
Default : Нет
Forced : Нет
Аудио #3
Идентификатор : 4
Формат : AC-3
Формат/Информация : Audio Coding 3
Расширение режима : CM (complete main)
Параметр Endianness формата : Big
Идентификатор кодека : A_AC3
Продолжительность : 1 ч. 32 м.
Вид битрейта : Постоянный
Битрейт : 224 Кбит/сек
Каналы : 2 канала
Расположение каналов : Front: L R
Частота : 48,0 КГц
Частота кадров : 31,250 кадров/сек (1536 spf)
Метод сжатия : С потерями
Размер потока : 148 Мбайт (4%)
Заголовок : DVO с DVD5 4:3
Язык : Russian
Default : Нет
Forced : Нет
Аудио #4
Идентификатор : 5
Формат : AC-3
Формат/Информация : Audio Coding 3
Расширение режима : CM (complete main)
Параметр Endianness формата : Big
Идентификатор кодека : A_AC3
Продолжительность : 1 ч. 32 м.
Вид битрейта : Постоянный
Битрейт : 192 Кбит/сек
Каналы : 2 канала
Расположение каналов : Front: L R
Частота : 48,0 КГц
Частота кадров : 31,250 кадров/сек (1536 spf)
Метод сжатия : С потерями
Размер потока : 127 Мбайт (4%)
Заголовок : AVO женский голос с кинотеатра
Язык : Russian
Default : Нет
Forced : Нет
Аудио #5
Идентификатор : 6
Формат : AC-3
Формат/Информация : Audio Coding 3
Расширение режима : CM (complete main)
Параметр Endianness формата : Big
Идентификатор кодека : A_AC3
Продолжительность : 1 ч. 32 м.
Вид битрейта : Постоянный
Битрейт : 192 Кбит/сек
Каналы : 2 канала
Расположение каналов : Front: L R
Частота : 48,0 КГц
Частота кадров : 31,250 кадров/сек (1536 spf)
Метод сжатия : С потерями
Размер потока : 127 Мбайт (4%)
Заголовок : AVO Петербуржец
Язык : Russian
Default : Нет
Forced : Нет
Аудио #6
Идентификатор : 7
Формат : AC-3
Формат/Информация : Audio Coding 3
Расширение режима : CM (complete main)
Параметр Endianness формата : Big
Идентификатор кодека : A_AC3
Продолжительность : 1 ч. 32 м.
Вид битрейта : Постоянный
Битрейт : 448 Кбит/сек
Каналы : 6 каналов
Расположение каналов : Front: L C R, Side: L R, LFE
Частота : 48,0 КГц
Частота кадров : 31,250 кадров/сек (1536 spf)
Метод сжатия : С потерями
Размер потока : 297 Мбайт (9%)
Язык : English
Default : Нет
Forced : Нет
Текст #1
Идентификатор : 8
Формат : UTF-8
Идентификатор кодека : S_TEXT/UTF8
Идентификатор кодека/Информация : UTF-8 Plain Text
Заголовок : от Переводмана
Язык : Russian
Default : Нет
Forced : Нет
Текст #2
Идентификатор : 9
Формат : UTF-8
Идентификатор кодека : S_TEXT/UTF8
Идентификатор кодека/Информация : UTF-8 Plain Text
Заголовок : от N@me
Язык : Russian
Default : Нет
Forced : Нет
Текст #3
Идентификатор : 10
Формат : UTF-8
Идентификатор кодека : S_TEXT/UTF8
Идентификатор кодека/Информация : UTF-8 Plain Text
Язык : English
Default : Нет
Forced : Нет

Скриншоты


[Цитировать]

Топик был перенесен из форума Фэнтези в форум Классика мирового кинематографа
Viktor1952



Показать сообщения:    

Текущее время: 12-Май 02:42

Часовой пояс: UTC + 6


Вы не можете начинать темы
Вы не можете отвечать на сообщения
Вы не можете редактировать свои сообщения
Вы не можете удалять свои сообщения
Вы не можете голосовать в опросах
Вы не можете прикреплять файлы к сообщениям
Вы не можете скачивать файлы

!ВНИМАНИЕ!
Сайт не предоставляет электронные версии произведений, а занимается лишь коллекционированием и каталогизацией ссылок, присылаемых и публикуемых на форуме нашими читателями. Если вы являетесь правообладателем какого-либо представленного материала и не желаете, чтобы ссылка на него находилась в нашем каталоге, свяжитесь с нами, и мы незамедлительно удалим ее. Файлы для обмена на трекере предоставлены пользователями сайта, и администрация не несет ответственности за их содержание. Просьба не заливать файлы, защищенные авторскими правами, а также файлы нелегального содержания!