***Уважаемые пользователи и гости !!! Сайт переехал на новый домен Torrents-club.info. Просьба изменить ваши закладки! ***
 
[ Сегодня идет свободное скачивание без начисления Download ]


Статистика раздачи
Нет
 
   
 
 
 
Глубоководный горизонт / Deepwater Horizon Информация о фильме
Название: Глубоководный горизонт
Оригинальное название: Deepwater Horizon
Год выхода: 2016
Жанр: Боевик, триллер, драма
Режиссер: Питер Берг
В ролях: Марк Уолберг, Курт Расселл, Джон Малкович, Джина Родригез, Дилан О`Брайэн, Кейт Хадсон, Итэн Сапли, Генри Фрост, Дуглас М. Гриффин, Сью-Линн Ансари, Брэд Лелэнд, Дж.Д. Эвермор
О фильме:
Отправляясь на очередную вахту и прощаясь с семьями, они не подозревали, что могут не вернуться… Это основанная на реальных событиях история о страшной аварии на нефтяной платформе «Глубоководный горизонт», которая произошла в 2010 году в Мексиканском заливе. Хроника беспримерного мужества и отваги перед лицом одной из самых страшных техногенных катастроф в мировой истории.

Официальный сайт
Выпущено: США / Lionsgate, Summit Entertainment, Participant Media
Продолжительность: 01:47:17
Перевод: Дублированный (Лицензия)
Файл
Формат: MKV
Качество: HDRip-AVC
Видео: MPEG-4 AVC, 2433 Кбит/с, 1024x428
Аудио: Русский (AC3, 6 ch, 448 Кбит/с)
Аудио: Английский (AC3, 6 ch, 448 Кбит/с)
Субтитры: Английские
Семпл

MI

Общее
Уникальный идентификатор : 171630371753581560684982624702673383478 (0x811ECEA6CC97743886A5A40BC88EF036)
Полное имя : E:Раздача-BDRipGlubokovodnyi_Gorizont.2016.HDRip-AVC_FreeRutor.mkv
Формат : Matroska
Версия формата : Version 2
Размер файла : 2,50 Гбайт
Продолжительность : 1 ч. 47 м.
Общий поток : 3331 Кбит/сек
Название фильма : Deepwater Horizon (2016) BDRip_FreeRutor_grab777
Дата кодирования : UTC 2017-01-28 01:34:15
Программа кодирования : mkvmerge v5.8.0 ('No Sleep / Pillow') built on Sep 2 2012 15:37:04
Библиотека кодирования : libebml v1.2.3 + libmatroska v1.3.0
Видео
Идентификатор : 1
Формат : AVC
Формат/Информация : Advanced Video Codec
Профиль формата : High@L4.1
Параметр CABAC формата : Да
Параметр ReFrames формата : 10 кадров
Идентификатор кодека : V_MPEG4/ISO/AVC
Продолжительность : 1 ч. 47 м.
Битрейт : 2433 Кбит/сек
Ширина : 1024 пикселя
Высота : 428 пикселей
Соотношение сторон : 2,40:1
Режим частоты кадров : Постоянный
Частота кадров : 23,976 кадра/сек
Цветовое пространство : YUV
Субдискретизация насыщенности : 4:2:0
Битовая глубина : 8 бит
Тип развёртки : Прогрессивная
Бит/(Пиксели*Кадры) : 0.232
Размер потока : 1,77 Гбайт (71%)
Заголовок : Video_TorpedoUK
Библиотека кодирования : x264 core 146 r2538 121396c
Настройки программы : cabac=1 / ref=10 / deblock=1:-3:-3 / analyse=0x3:0x133 / me=umh / subme=11 / psy=1 / psy_rd=1.00:0.03 / mixed_ref=1 / me_range=48 / chroma_me=1 / trellis=2 / 8x8dct=1 / cqm=0 / deadzone=21,11 / fast_pskip=0 / chroma_qp_offset=-3 / threads=6 / lookahead_threads=1 / sliced_threads=0 / nr=0 / decimate=0 / interlaced=0 / bluray_compat=0 / constrained_intra=0 / bframes=10 / b_pyramid=2 / b_adapt=2 / b_bias=0 / direct=3 / weightb=1 / open_gop=0 / weightp=2 / keyint=240 / keyint_min=23 / scenecut=40 / intra_refresh=0 / rc_lookahead=40 / rc=2pass / mbtree=0 / bitrate=2433 / ratetol=1.0 / qcomp=0.60 / qpmin=0 / qpmax=69 / qpstep=4 / cplxblur=20.0 / qblur=0.5 / vbv_maxrate=50000 / vbv_bufsize=62500 / nal_hrd=none / filler=0 / ip_ratio=1.40 / pb_ratio=1.30 / aq=1:1.00
Default : Да
Forced : Нет
Аудио #1
Идентификатор : 2
Формат : AC-3
Формат/Информация : Audio Coding 3
Расширение режима : CM (complete main)
Параметр Endianness формата : Big
Идентификатор кодека : A_AC3
Продолжительность : 1 ч. 47 м.
Вид битрейта : Постоянный
Битрейт : 448 Кбит/сек
Каналы : 6 каналов
Расположение каналов : Front: L C R, Side: L R, LFE
Частота : 48,0 КГц
Битовая глубина : 16 бит
Метод сжатия : С потерями
Размер потока : 344 Мбайт (13%)
Заголовок : Dub (Лицензия)
Язык : Russian
Default : Да
Forced : Да
Аудио #2
Идентификатор : 3
Формат : AC-3
Формат/Информация : Audio Coding 3
Расширение режима : CM (complete main)
Параметр Endianness формата : Big
Идентификатор кодека : A_AC3
Продолжительность : 1 ч. 47 м.
Вид битрейта : Постоянный
Битрейт : 448 Кбит/сек
Каналы : 6 каналов
Расположение каналов : Front: L C R, Side: L R, LFE
Частота : 48,0 КГц
Битовая глубина : 16 бит
Метод сжатия : С потерями
Размер потока : 344 Мбайт (13%)
Заголовок : Original
Язык : English
Default : Нет
Forced : Нет
Текст
Идентификатор : 4
Формат : UTF-8
Идентификатор кодека : S_TEXT/UTF8
Идентификатор кодека/Информация : UTF-8 Plain Text
Язык : English
Default : Нет
Forced : Нет
Меню
00:00:00.000 : en:00:00:00.000
00:07:01.212 : en:00:07:01.212
00:12:32.627 : en:00:12:32.627
00:19:34.465 : en:00:19:34.465
00:27:17.219 : en:00:27:17.219
00:34:52.632 : en:00:34:52.632
00:44:29.834 : en:00:44:29.834
00:48:04.924 : en:00:48:04.924
00:53:47.599 : en:00:53:47.599
00:58:05.148 : en:00:58:05.148
01:05:44.607 : en:01:05:44.607
01:10:06.869 : en:01:10:06.869
01:16:02.933 : en:01:16:02.933
01:20:44.381 : en:01:20:44.381
01:27:37.669 : en:01:27:37.669
01:31:37.826 : en:01:31:37.826

О релизе

Видео: TorpedoUK

Скриншоты

[

[Цитировать]



Показать сообщения:    

Текущее время: 08-Окт 03:22

Часовой пояс: UTC + 6


Вы не можете начинать темы
Вы не можете отвечать на сообщения
Вы не можете редактировать свои сообщения
Вы не можете удалять свои сообщения
Вы не можете голосовать в опросах
Вы не можете прикреплять файлы к сообщениям
Вы не можете скачивать файлы

!ВНИМАНИЕ!
Сайт не предоставляет электронные версии произведений, а занимается лишь коллекционированием и каталогизацией ссылок, присылаемых и публикуемых на форуме нашими читателями. Если вы являетесь правообладателем какого-либо представленного материала и не желаете, чтобы ссылка на него находилась в нашем каталоге, свяжитесь с нами, и мы незамедлительно удалим ее. Файлы для обмена на трекере предоставлены пользователями сайта, и администрация не несет ответственности за их содержание. Просьба не заливать файлы, защищенные авторскими правами, а также файлы нелегального содержания!