***Уважаемые пользователи и гости !!! Сайт переехал на новый домен Torrents-club.info. Просьба изменить ваши закладки! ***
 
[ Сегодня идет свободное скачивание без начисления Download ]


Статистика раздачи
Нет
 
   
 
 
 
 
Полицейские и воры / Guardie e ladri (1951) DVDRip - Производство: Италия, Guardie e ladri
Жанр: Комедия
Режиссер: Стено, Марио Моничелли
Актеры: Тото, Альдо Фабрици, Эрнесто Альмиранте, Альдо Алимонти, Марио Кастеллани, Рикардо Антолини, Алида Каппелини, Пьетро Карлони, Рокко Д’Ассунта.
Описание:
Мелкий мошенник Фердинандо Эспозито (Тото) «впаривает» богатому американцу «римский сестерций времен императора Клавдия». Из-за некстати появившегося конкурента его разоблачают, но Фердинандо удается скрыться. Появившись на раздаче помощи беднякам, Эспозито сталкивается с обманутым американцем, начинается комическая погоня с участием полицейского Боттони, американца и обманутого таксиста. Эспозито задерживают, но тот опять бежит. Под страхом предания суду за упущенного преступника сержанту Боттони приказывают найти Эспозито. Боттони знакомится с семьей Фердинандо и… дело принимает неожиданный поворот.

Возраст: 12+ (зрителям, достигшим 12 лет)
Релиз от: ФЕНИКС
Продолжительность: 01:37:34
Качество видео: DVDRip
Перевод: Дублированный
Автор перевода: СССР, киностудия имени Горького
Видео: Xvid, 704x544, ~1875 Kbps
Аудио: AC3, 2 ch, 256 Kbps, CBR

Mediainfo:

Общее
Полное имя : U:\Полицейские и воры (1951) DVDRip.avi
Формат : AVI
Формат/Информация : Audio Video Interleave
Размер файла : 1,46 Гбайт
Продолжительность : 1 ч. 37 м.
Общий поток : 2141 Кбит/сек
Программа кодирования : VirtualDubMod 1.5.10.2 (build 2540/release)
Библиотека кодирования : VirtualDubMod build 2540/release
Видео
Идентификатор : 0
Формат : MPEG-4 Visual
Профиль формата : Advanced Simple@L5
Параметр BVOP формата : 2
Параметр QPel формата : Нет
Параметр GMC формата : Без точки перехода
Параметр матрицы формата : Default (H.263)
Идентификатор кодека : XVID
Идентификатор кодека/Подсказка : XviD
Продолжительность : 1 ч. 37 м.
Битрейт : 1875 Кбит/сек
Ширина : 704 пикселя
Высота : 544 пикселя
Соотношение сторон : 5:4
Соотношение сторон в оригинале : 1,294
Частота кадров : 25,000 кадров/сек
Цветовое пространство : YUV
Субдискретизация насыщенности : 4:2:0
Битовая глубина : 8 бит
Тип развёртки : Прогрессивная
Метод сжатия : С потерями
Бит/(Пиксели*Кадры) : 0.196
Размер потока : 1,28 Гбайт (88%)
Библиотека кодирования : XviD 73
Аудио
Идентификатор : 1
Формат : AC-3
Формат/Информация : Audio Coding 3
Расширение режима : CM (complete main)
Параметр Endianness формата : Big
Идентификатор кодека : 2000
Продолжительность : 1 ч. 37 м.
Вид битрейта : Постоянный
Битрейт : 256 Кбит/сек
Каналы : 2 канала
Расположение каналов : Front: L R
Частота : 48,0 КГц
Частота кадров : 31,250 кадров/сек (1536 spf)
Метод сжатия : С потерями
Размер потока : 179 Мбайт (12%)
Выравнивание : Разделение по промежуткам
Продолжительность промежутка : 40 мс. (1,00 видеокадр)
Время предзагрузки промежутка : 500 мс.

Дополнительная информация:

Восстановлен ПОЛНЫЙ дубляж! (прежде отсутствующий во всех релизах из-за состояния исходного материала). Версия с оригинальными титрами из советской прокатной копии!
Роли дублируют:
З.Гердт, В.Хохряков, Е.Егорова, Э.Некрасова, А.Войцик, В.Борискин, В.Ларионов, Я.Беленький, В.Щелоков, В.Осенев, Р.Плятт, М.Глузский
Умопомрачительный дуэт Тото и Зиновия Гердта!
Дубляж киностудии им. М.Горького.
Режиссер дубляжа: Э.Волк
Звукооператор: А.Дикан
Выпуск 1956 г.
Скриншоты:

Дополнительные скриншоты:


Все одноименные релизы в Клубе
Время раздачи: С 1800 до 23:00 (до появления первых 3-5 скачавших)

[Цитировать]

Топик был перенесен из форума Комедия в форум Классика мирового кинематографа
Viktor1952



Показать сообщения:    

Текущее время: 07-Май 14:03

Часовой пояс: UTC + 6


Вы не можете начинать темы
Вы не можете отвечать на сообщения
Вы не можете редактировать свои сообщения
Вы не можете удалять свои сообщения
Вы не можете голосовать в опросах
Вы не можете прикреплять файлы к сообщениям
Вы не можете скачивать файлы

!ВНИМАНИЕ!
Сайт не предоставляет электронные версии произведений, а занимается лишь коллекционированием и каталогизацией ссылок, присылаемых и публикуемых на форуме нашими читателями. Если вы являетесь правообладателем какого-либо представленного материала и не желаете, чтобы ссылка на него находилась в нашем каталоге, свяжитесь с нами, и мы незамедлительно удалим ее. Файлы для обмена на трекере предоставлены пользователями сайта, и администрация не несет ответственности за их содержание. Просьба не заливать файлы, защищенные авторскими правами, а также файлы нелегального содержания!