***Уважаемые пользователи и гости !!! Сайт переехал на новый домен Torrents-club.info. Просьба изменить ваши закладки! ***
 
[ Сегодня идет свободное скачивание без начисления Download ]


Статистика раздачи
Нет
 
   
 
 
 
 
Бэби-бум / Baby Boom Информация о фильме
Название: Бэби-бум
Оригинальное название: Baby Boom
Год выхода: 1987
Жанр: Комедия, Мелодрама
Режиссер: Чарльз Шайер / Charles Shyer
В ролях: Дайан Китон, Сэм Шепард, Гарольд Рэймис, Кристина Кеннеди, Мишель Кеннеди, Сэм Ванамейкер,
Джеймс Спейдер, Пэт Хингл, Бритт Лич, Линда Эллерби
О фильме: Легкая комедия, более похожая на добрую сказочку. Деловая женщина, безумно занятая на работе, вынуждена круто менять свою жизнь, когда у нее на руках появляется крохотный плачущий комочек в пеленках. Она мечется между младенцем, боссом и "другом семьи" и находит успокоение, только уехав за город, где встречает замечательного человека, местного ветеринара...

Страна: США
Студия: United Artists, Meyers/Shye
Продолжительность: 01:50:16
Перевод #1: Профессиональный (многоголосый, закадровый) НТВ+
Перевод #2: Профессиональный (многоголосый, закадровый) СТС/ТНТ/Домашний
Cубтитры : Английский
Контейнер: MKV
Качество: WEBRip 1080p
Видео: MPEG-4 AVC, High@L4, 14.0 Mb/s, 1 920 x 1 040, 23.976 fps
Аудио 1 : Русский (AC-3, 2ch, 192 kb/s, 48.0 KHz) НТВ+
Аудио 2 : Русский (AC-3, 2ch, 192 kb/s, 48.0 KHz) СТС/ТНТ/Домашний
Аудио 3 : Английский (E-AC-3, 2ch, 224 kb/s, 48.0 KHz)
Субтитры : English SRT
Навигация по главам: есть (En)
Глобальные тэги: есть

MI

Общее
Уникальный идентификатор : 224081510354380420366759741997023651779 (0xA89487719F8802789A45EC96090267C3)
Полное имя : E:Baby Boom (1987) Webrip 1080p.mkv
Формат : Matroska
Версия формата : Version 4 / Version 2
Размер файла : 11,3 Гбайт
Продолжительность : 1 ч. 50 м.
Режим общего битрейта : Переменный
Общий поток : 14,7 Мбит/сек
Название фильма : Baby Boom
Тип содержимого : Movie
Описание : An unexpected comedy
Дата выпуска : 1987-09-17
Дата кодирования : UTC 2017-01-26 19:20:30
Программа кодирования : mkvmerge v9.8.0 ('Kuglblids') 64bit
Библиотека кодирования : libebml v1.3.4 + libmatroska v1.4.5
Обложка : Yes
Attachments : cover.jpg
ACTOR : Diane Keaton, Sam Shepard, Harold Ramis, Kristina Kennedy, Sam Wanamaker, James Spader, Pat Hingle, Linda Ellerbee, Mary Gross, Shera Danese
ARTIST : Diane Keaton, Sam Shepard, Harold Ramis, Kristina Kennedy, Sam Wanamaker, James Spader, Pat Hingle, Linda Ellerbee, Mary Gross, Shera Danese
DIRECTOR : Charles Shyer
GENRE : Comedy, Romance, Family
LAW_RATING : PG
PRODUCER : Nancy Meyers
PRODUCTION_STUDIO : United Artists
SCREENPLAY_BY : Nancy Meyers, Charles Shyer
SUMMARY : An unexpected comedy
SYNOPSIS : The life of super-yuppie J.C. is thrown into turmoil when she inherits a baby from a distant relative.
Видео
Идентификатор : 1
Формат : AVC
Формат/Информация : Advanced Video Codec
Профиль формата : High@L4
Параметр CABAC формата : Да
Параметр ReFrames формата : 4 кадра
Идентификатор кодека : V_MPEG4/ISO/AVC
Продолжительность : 1 ч. 50 м.
Вид битрейта : Переменный
Битрейт : 14,0 Мбит/сек
Максимальный битрейт : 15,0 Мбит/сек
Ширина : 1920 пикселей
Высота : 1040 пикселей
Соотношение сторон : 1,85:1
Режим частоты кадров : Постоянный
Частота кадров : 23,976 (24000/1001) кадра/сек
Цветовое пространство : YUV
Субдискретизация насыщенности : 4:2:0
Битовая глубина : 8 бит
Тип развёртки : Прогрессивная
Бит/(Пиксели*Кадры) : 0.293
Размер потока : 10,8 Гбайт (96%)
Библиотека кодирования : x264 core 148 r2623 d5b2374
Настройки программы : cabac=1 / ref=4 / deblock=1:-1:-1 / analyse=0x3:0x133 / me=umh / subme=9 / psy=1 / psy_rd=1.00:0.15 / mixed_ref=1 / me_range=24 / chroma_me=1 / trellis=2 / 8x8dct=1 / cqm=0 / deadzone=21,11 / fast_pskip=1 / chroma_qp_offset=-3 / threads=32 / lookahead_threads=5 / sliced_threads=0 / nr=150 / decimate=1 / interlaced=0 / bluray_compat=0 / constrained_intra=0 / bframes=8 / b_pyramid=2 / b_adapt=2 / b_bias=0 / direct=3 / weightb=1 / open_gop=0 / weightp=2 / keyint=120 / keyint_min=61 / scenecut=0 / intra_refresh=0 / rc_lookahead=120 / rc=crf / mbtree=1 / crf=18.0 / qcomp=0.60 / qpmin=0 / qpmax=69 / qpstep=4 / vbv_maxrate=15000 / vbv_bufsize=31250 / crf_max=0.0 / nal_hrd=vbr / filler=0 / ip_ratio=1.40 / aq=3:1.00
Язык : English
Default : Да
Forced : Нет
Цветовой диапазон : Limited
Основные цвета : BT.709
Характеристики трансфера : BT.709
Коэффициенты матрицы : BT.709
Аудио #1
Идентификатор : 2
Формат : AC-3
Формат/Информация : Audio Coding 3
Расширение режима : CM (complete main)
Параметр Endianness формата : Big
Идентификатор кодека : A_AC3
Продолжительность : 1 ч. 50 м.
Вид битрейта : Постоянный
Битрейт : 192 Кбит/сек
Каналы : 2 канала
Расположение каналов : Front: L R
Частота : 48,0 КГц
Частота кадров : 31,250 кадров/сек (1536 spf)
Битовая глубина : 16 бит
Метод сжатия : С потерями
Размер потока : 151 Мбайт (1%)
Заголовок : MVO НТВ+
Язык : Russian
Default : Да
Forced : Нет
Аудио #2
Идентификатор : 3
Формат : AC-3
Формат/Информация : Audio Coding 3
Расширение режима : CM (complete main)
Параметр Endianness формата : Big
Идентификатор кодека : A_AC3
Продолжительность : 1 ч. 50 м.
Вид битрейта : Постоянный
Битрейт : 192 Кбит/сек
Каналы : 2 канала
Расположение каналов : Front: L R
Частота : 48,0 КГц
Частота кадров : 31,250 кадров/сек (1536 spf)
Битовая глубина : 16 бит
Метод сжатия : С потерями
Размер потока : 151 Мбайт (1%)
Заголовок : MVO СТС/ТНТ/Домашний
Язык : Russian
Default : Нет
Forced : Нет
Аудио #3
Идентификатор : 4
Формат : E-AC-3
Формат/Информация : Enhanced Audio Coding 3
Параметр Endianness формата : Big
Идентификатор кодека : A_EAC3
Продолжительность : 1 ч. 50 м.
Вид битрейта : Постоянный
Битрейт : 224 Кбит/сек
Каналы : 2 канала
Расположение каналов : Front: L R
Частота : 48,0 КГц
Частота кадров : 187,500 кадров/сек (256 spf)
Метод сжатия : С потерями
Размер потока : 177 Мбайт (2%)
Язык : English
Default : Нет
Forced : Нет
Текст
Идентификатор : 5
Формат : UTF-8
Идентификатор кодека : S_TEXT/UTF8
Идентификатор кодека/Информация : UTF-8 Plain Text
Продолжительность : 1 ч. 44 м.
Битрейт : 79 бит/сек
Count of elements : 1910
Размер потока : 60,3 Кбайт (0%)
Заголовок : SRT
Язык : English
Default : Нет
Forced : Нет
Меню
00:00:00.000 : en:Busy Partners
00:10:30.408 : en:Some Inheritance!
00:16:43.463 : en:What a Mess!
00:23:44.778 : en:"Please! Guilt?"
00:33:36.437 : en:No No Nanny
00:40:43.173 : en:Here Comes Trouble
00:44:43.257 : en:Getting a Head Start
00:50:00.213 : en:"Out of Control"
00:56:27.367 : en:Going Stir Crazy
01:07:07.242 : en:Country Doc
01:10:48.139 : en:A "Jar" Is Born
01:13:37.399 : en:"Dr. Charm"
01:19:30.684 : en:"Baby Food Bonanza"
01:24:27.202 : en:Romance in Vermont
01:34:21.197 : en:"Savvy Businesswoman"
01:43:16.004 : en:Happy Mom
01:45:51.583 : en:End Credits

Скриншоты

[Цитировать]

Топик был перенесен из форума Зарубежное кино (HD Video) в форум Классика зарубежного кино (HD Video)
Viktor1952



Показать сообщения:    

Текущее время: 07-Май 13:03

Часовой пояс: UTC + 6


Вы не можете начинать темы
Вы не можете отвечать на сообщения
Вы не можете редактировать свои сообщения
Вы не можете удалять свои сообщения
Вы не можете голосовать в опросах
Вы не можете прикреплять файлы к сообщениям
Вы не можете скачивать файлы

!ВНИМАНИЕ!
Сайт не предоставляет электронные версии произведений, а занимается лишь коллекционированием и каталогизацией ссылок, присылаемых и публикуемых на форуме нашими читателями. Если вы являетесь правообладателем какого-либо представленного материала и не желаете, чтобы ссылка на него находилась в нашем каталоге, свяжитесь с нами, и мы незамедлительно удалим ее. Файлы для обмена на трекере предоставлены пользователями сайта, и администрация не несет ответственности за их содержание. Просьба не заливать файлы, защищенные авторскими правами, а также файлы нелегального содержания!