***Уважаемые пользователи и гости !!! Сайт переехал на новый домен Torrents-club.info. Просьба изменить ваши закладки! ***
 
[ Сегодня идет свободное скачивание без начисления Download ]


Статистика раздачи
Нет
 
   
 
 
 
 
Моя жизнь / My Life (1993) WEB-DL 720p Информация о фильме
Название: Моя жизнь
Оригинальное название: My Life
Год выхода: 1993
Жанр: драма
Режиссер: Брюс Джоэл Рубин
В ролях: Николь Кидман, Майкл Китон, Брэдли Уитфорд, Куин Латифа, Майкл Константин, Ребекка Шалл, Марк Ловенталь, Ли Гарлингтон, Тони Сойер, Хэйнг С. Нгор
О фильме:
Полный надежд и одержимый работой молодой мужчина Боб Джонс узнаёт, что у него рак почек и жить осталось недолго. Его жена Гейл ожидает ребёнка, но Боб, возможно, не доживёт до счастливого момента. Он начинает снимать себя на видеокамеру для своего будущего сына или дочери.

Страна: США
Студия: Capella Films, Columbia Pictures Corporation
Продолжительность: 01:56:55
Перевод: Профессиональный (многоголосый, закадровый) + Авторский (одноголосый, закадровый) Михаил Иванов
Файл
Формат: Matroska
Видео: 1280x718 at 23.976 fps, MPEG-4 AVC ~4000 kbps avg
Аудио#1: Russian: 48 kHz, AC3, 2/0 (L,R) ch, ~192.00 kbps avg |Многоголосый закадровый|
Аудио#2: Russian: 48 kHz, AC3, 2/0 (L,R) ch, ~192.00 kbps avg |Авторский, М.Иванов|
Аудио#3: English: 48 kHz, AC3, 2/0 (L,R) ch, ~192.00 kbps avg
Субтитры: Russian, English
***За перевод М.Иванова спасибо fandvd;
***Синхронизация звука - Dreven.

MI

Общее
Уникальный идентификатор : 226899093922059237526595659246201765102 (0xAAB32D0A00BFEB3285881EB5A5A07CEE)
Полное имя : My Life. WEB-DL 720p.mkv
Формат : Matroska
Версия формата : Version 4 / Version 2
Размер файла : 3,83 Гбайт
Продолжительность : 1 ч. 56 м.
Общий поток : 4692 Кбит/сек
Название фильма :
Дата кодирования : UTC 2015-10-17 16:43:08
Программа кодирования : mkvmerge v8.4.0 ('A better way to fly') 64bit
Библиотека кодирования : libebml v1.3.1 + libmatroska v1.4.2
Видео
Идентификатор : 1
Формат : AVC
Формат/Информация : Advanced Video Codec
Профиль формата : High@L3.1
Параметр CABAC формата : Нет
Параметр ReFrames формата : 2 кадра
Параметр GOP формата : N=1
Идентификатор кодека : V_MPEG4/ISO/AVC
Продолжительность : 1 ч. 56 м.
Битрейт : 4023 Кбит/сек
Ширина : 1280 пикселей
Высота : 718 пикселей
Соотношение сторон : 16:9
Режим частоты кадров : Постоянный
Частота кадров : 23,976 кадра/сек
Цветовое пространство : YUV
Субдискретизация насыщенности : 4:2:0
Битовая глубина : 8 бит
Тип развёртки : Прогрессивная
Бит/(Пиксели*Кадры) : 0.183
Размер потока : 3,29 Гбайт (86%)
Язык : English
Default : Да
Forced : Нет
Цветовой диапазон : Limited
Основные цвета : BT.709
Характеристики трансфера : BT.709
Коэффициенты матрицы : BT.709
Аудио #1
Идентификатор : 2
Формат : AC-3
Формат/Информация : Audio Coding 3
Расширение режима : CM (complete main)
Параметр Endianness формата : Big
Идентификатор кодека : A_AC3
Продолжительность : 1 ч. 56 м.
Вид битрейта : Постоянный
Битрейт : 192 Кбит/сек
Каналы : 2 канала
Расположение каналов : Front: L R
Частота : 48,0 КГц
Метод сжатия : С потерями
Размер потока : 161 Мбайт (4%)
Язык : Russian
Default : Да
Forced : Нет
Аудио #2
Идентификатор : 3
Формат : AC-3
Формат/Информация : Audio Coding 3
Расширение режима : CM (complete main)
Параметр Endianness формата : Big
Идентификатор кодека : A_AC3
Продолжительность : 1 ч. 56 м.
Вид битрейта : Постоянный
Битрейт : 192 Кбит/сек
Каналы : 2 канала
Расположение каналов : Front: L R
Частота : 48,0 КГц
Метод сжатия : С потерями
Размер потока : 161 Мбайт (4%)
Заголовок : Михаил Иванов
Язык : Russian
Default : Нет
Forced : Нет
Аудио #3
Идентификатор : 4
Формат : AC-3
Формат/Информация : Audio Coding 3
Расширение режима : CM (complete main)
Параметр Endianness формата : Big
Идентификатор кодека : A_AC3
Продолжительность : 1 ч. 56 м.
Вид битрейта : Постоянный
Битрейт : 192 Кбит/сек
Каналы : 2 канала
Расположение каналов : Front: L R
Частота : 48,0 КГц
Метод сжатия : С потерями
Размер потока : 161 Мбайт (4%)
Язык : English
Default : Нет
Forced : Нет
Текст #1
Идентификатор : 5
Формат : UTF-8
Идентификатор кодека : S_TEXT/UTF8
Идентификатор кодека/Информация : UTF-8 Plain Text
Язык : Russian
Default : Нет
Forced : Нет
Текст #2
Идентификатор : 6
Формат : UTF-8
Идентификатор кодека : S_TEXT/UTF8
Идентификатор кодека/Информация : UTF-8 Plain Text
Язык : English
Default : Нет
Forced : Нет
Меню
00:00:00.000 : en:Start
00:01:51.000 : en:Circus wish
00:04:29.000 : en:"I'm supposed to be dying."
00:12:53.000 : en:Testaments to Bob Jones
00:16:47.000 : en:The Cuban restaurant
00:21:03.000 : en:Dr. Califano
00:24:35.000 : en:Mr. Ho clinic
00:32:53.000 : en:Carol Sanderman
00:36:18.000 : en:Two important subjects
00:40:34.000 : en:Bad dreams
00:44:41.000 : en:His old house
00:51:23.000 : en:Family reunion
00:54:24.000 : en:Wedding & reception
01:02:19.000 : en:Bobby & Paul
01:05:46.000 : en:Finding his heart
01:08:03.000 : en:The ultrasound test
01:14:48.000 : en:Riding The Serpent
01:20:12.000 : en:"Bob?it's time."
01:22:15.000 : en:"We have a baby."
01:24:48.000 : en:Life with Brian
01:28:42.000 : en:"The cancer has spread."
01:30:54.000 : en:Theresa
01:36:22.000 : en:"The William Tell Overture"
01:40:05.000 : en:With his family
01:42:57.000 : en:"Sometimes wishes come true."
01:45:06.000 : en:A man-to-man talk
01:47:30.000 : en:"It's happening so fast."
01:52:24.000 : en:GREEN EEGS AND HAM

Скриншоты


[Цитировать]



Показать сообщения:    

Текущее время: 06-Май 13:09

Часовой пояс: UTC + 6


Вы не можете начинать темы
Вы не можете отвечать на сообщения
Вы не можете редактировать свои сообщения
Вы не можете удалять свои сообщения
Вы не можете голосовать в опросах
Вы не можете прикреплять файлы к сообщениям
Вы не можете скачивать файлы

!ВНИМАНИЕ!
Сайт не предоставляет электронные версии произведений, а занимается лишь коллекционированием и каталогизацией ссылок, присылаемых и публикуемых на форуме нашими читателями. Если вы являетесь правообладателем какого-либо представленного материала и не желаете, чтобы ссылка на него находилась в нашем каталоге, свяжитесь с нами, и мы незамедлительно удалим ее. Файлы для обмена на трекере предоставлены пользователями сайта, и администрация не несет ответственности за их содержание. Просьба не заливать файлы, защищенные авторскими правами, а также файлы нелегального содержания!