***Уважаемые пользователи и гости !!! Сайт переехал на новый домен Torrents-club.info. Просьба изменить ваши закладки! ***
 
[ Сегодня идет свободное скачивание без начисления Download ]


Статистика раздачи
Нет
 
   
 
 
 
 
Гражданский брак - Производство: Россия, Good Story Media
Жанр: комедия
Режиссер: Дина Штурманова
Актеры: Агата Муцениеце, Денис Кукояка, Дмитрий Астрахан, Анна Легчилова, Ирина Чеснокова, Дмитрий Аверин, Михаил Грушевский, Стефания-Марьяна Гурская, Александр Шулико, Степан Девонин и др.
Описание:
История о паре, которой уже поздно встречаться, но рано жениться. Тёма и Ника вместе уже больше года и, им хорошо и весело вместе. Но они легкомысленные и не слишком серьезно ко всему относятся. Они не хотят повторять жизнь своих родителей: в 18 – первая работа, в 20 – свадьба, в 25 – семья и трое детей.
Но чтобы доказать родителям и себе, что они готовы к самостоятельной жизни, Тёма и Ника решают съехаться — тем более у них есть бабушкина квартира Ники. Отец Ники терпеть не может Тёму, но разрешает им пожить в этой квартире. Всё было бы прекрасно, если бы эта квартира не находилась всего на несколько этажей ниже квартиры родителей Ники.
Теперь их ждут все прелести взрослой жизни: поиски работы и еды, ссоры из-за глупостей, надоедливые богатые соседи и так далее.
Сломит ли гражданский брак инфантильных и веселых Тёму и Нику? Или они научатся самостоятельной жизни и их любовь станет только крепче?

Возраст: 16+ (зрителям, достигшим 16 лет)
Продолжительность: ~00:21:00 серия
Качество видео: WEB-DL
Видео: AVC/H.264, 1280x720 (16:9), ~3525 kbps
Аудио: AC3, 2 ch, 192 kbps

Mediainfo

General
Unique ID : 171946624479204698193707254920112827144 (0x815BB71D61BDF72893130C7EDD9CEB08)
Complete name : D:\SRV\FDownloads\Grajdanskiy.brak.2017.WEB-DL.(720p).Nikolspup\Grajdanskiy.brak.(03.seriya).2017.WEB-DL.(720p).Nikolspup.mkv
Format : Matroska
Format version : Version 2
File size : 639 MiB
Duration : 23 min 33 s
Overall bit rate : 3 793 kb/s
Movie name : Grajdanskiy.brak.(03.seriya).2017.WEB-DL.(720p)@ release by Nikolspup
Encoded date : UTC 2017-01-09 18:16:12
Writing application : mkvmerge v5.8.0 ('No Sleep / Pillow') built on Sep 2 2012 15:37:04
Writing library : libebml v1.2.3 + libmatroska v1.3.0
Video
ID : 1
Format : AVC
Format/Info : Advanced Video Codec
Format profile : High@L3.1
Format settings, CABAC : Yes
Format settings, ReFrames : 1 frame
Format settings, GOP : M=1, N=12
Codec ID : V_MPEG4/ISO/AVC
Duration : 23 min 33 s
Bit rate : 3 525 kb/s
Width : 1 280 pixels
Height : 720 pixels
Display aspect ratio : 16:9
Frame rate mode : Constant
Frame rate : 25.000 FPS
Standard : Component
Color space : YUV
Chroma subsampling : 4:2:0
Bit depth : 8 bits
Scan type : Progressive
Bits/(Pixel*Frame) : 0.153
Stream size : 594 MiB (93%)
Default : No
Forced : No
Color range : Limited
Audio
ID : 2
Format : AC-3
Format/Info : Audio Coding 3
Mode extension : CM (complete main)
Format settings, Endianness : Big
Codec ID : A_AC3
Duration : 23 min 33 s
Bit rate mode : Constant
Bit rate : 192 kb/s
Channel(s) : 2 channels
Channel positions : Front: L R
Sampling rate : 48.0 kHz
Frame rate : 31.250 FPS (1536 spf)
Bit depth : 16 bits
Compression mode : Lossy
Stream size : 32.4 MiB (5%)
Language : Russian
Default : Yes
Forced : Yes

Внимание! Раздача ведётся путём добавления новых серий

Внимание! Раздача ведётся путём добавления новых серий; при каждом добавлении создаётся новый торрент.
Чтобы начать докачку новой серии, пользователям необходимо сделать следующее:
1. Остановить скачивание;
2. Удалить старый торрент у себя из клиента (старые серии удалять не надо);
3. Скачать новый торрент и запустить его у себя в клиенте вместо старого, при этом указать клиенту путь в старую папку куда и должно происходить скачивание новых серий. Ваш клиент при этом должен произвести хеширование (проверку) старой папки и будет докачивать только те серии, которых у вас ещё нет. Старые серии при этом не удаляются, а продолжают раздаваться! Eсли вы уже удалили старые серии, то предотвратить повторную закачку старых серий можно, отжав галочку в соответствующих местах при запуске нового торрента.
Скриншоты:

[Цитировать]

Что за название, Гражданский брак.
В гражданском обществе "брак" осуществляется в учреждении "ЗАГС" - запись актов гражданского состояние !!! Второй вид "брака", церковный !!! То бишь Венчание !!!
Остальное следует называть не иначе как Сожительство !!! А по сему и фильм должен иметь соответствующее название!, а режиссёр назвал фильм оправдательным названием такого явления как сожительство в угоду тем, кто называет это гражданским браком.
Как то так !

[Цитировать]

74945Что за название, Гражданский брак.
В гражданском обществе "брак" осуществляется в учреждении "ЗАГС" - запись актов гражданского состояние !!! Второй вид "брака", церковный !!! То бишь Венчание !!!
Остальное следует называть не иначе как Сожительство !!! А по сему и фильм должен иметь соответствующее название!, а режиссёр назвал фильм оправдательным названием такого явления как сожительство в угоду тем, кто называет это гражданским браком.
Как то так !
согласен, но не моя это прихоть!!! безграмотность продюсеров и авторов поражает

[Цитировать]



Показать сообщения:    

Текущее время: 06-Май 13:03

Часовой пояс: UTC + 6


Вы не можете начинать темы
Вы не можете отвечать на сообщения
Вы не можете редактировать свои сообщения
Вы не можете удалять свои сообщения
Вы не можете голосовать в опросах
Вы не можете прикреплять файлы к сообщениям
Вы не можете скачивать файлы

!ВНИМАНИЕ!
Сайт не предоставляет электронные версии произведений, а занимается лишь коллекционированием и каталогизацией ссылок, присылаемых и публикуемых на форуме нашими читателями. Если вы являетесь правообладателем какого-либо представленного материала и не желаете, чтобы ссылка на него находилась в нашем каталоге, свяжитесь с нами, и мы незамедлительно удалим ее. Файлы для обмена на трекере предоставлены пользователями сайта, и администрация не несет ответственности за их содержание. Просьба не заливать файлы, защищенные авторскими правами, а также файлы нелегального содержания!