***Уважаемые пользователи и гости !!! Сайт переехал на новый домен Torrents-club.info. Просьба изменить ваши закладки! ***
 
[ Сегодня идет свободное скачивание без начисления Download ]


Статистика раздачи
Нет
 
   
 
 
 
Jean Michel Jarre - Oxygene Trilogy - The 40th Anniversary Edition (2016)-
Год: 2016
Жанр: Electronic, Ambient
Продолжительность: 02:01:08
Лейбл: Sony Music
Каталог №: 88985361872
Сканы: Комплект-Тип рипа: image+.cue
Формат записи: 24/192
Формат раздачи: 24/192
Кодек: FLAC 2.0--

Треклист:

Oxygene 1-6 (1976)
A1. Oxygene (Part 1) (7:39)
A2. Oxygene (Part 2) (7:47)
A4. Oxygene (Part 3) (3:15)
B1. Oxygene (Part 4) (4:06)
B2. Oxygene (Part 5) (10:14)
B3. Oxygene (Part 6) (6:37)
Oxygene 7-13 (1997)
C1. Oxygene (Part 7) (11:41)
C2. Oxygene (Part 8) (3:54)
C3. Oxygene (Part 9) (6:13)
D1. Oxygene (Part 10) (4:16)
D2. Oxygene (Part 11) (4:58)
D3. Oxygene (Part 12) (5:40)
D4. Oxygene (Part 13) (4:25)
Oxygene 14-20 (2016)
E1. Oxygene (Part 14) (5:27)
E2. Oxygene (Part 15) (6:40)
E3. Oxygene (Part 16) (6:50)
F1. Oxygene (Part 17) (4:20)
F2. Oxygene (Part 18) (2:48)
F3. Oxygene (Part 19) (5:45)
F4. Oxygene (Part 20) (7:59)

Technical info:

Оцифровано: asdfvl
Код класса состояния винила: Mint
Устройство воспроизведения: Technics SL-1210MK2
Картридж: Lyra Delos
Предварительный усилитель: Musical Fidelity V-LPS
АЦП: E-MU 1616M PCIe
Программа-оцифровщик: Sound Forge Audio Studio 10.0
Обработка: Ручное удаление заметных кликов

Спектральный анализ / АЧХ / Уровень записи:


MediaInfo:

Общее
Полное имя : D:\Jean-Michel Jarre - 2016 - Oxygene Trilogy (3LP, EU, 88985361872) [24-192]\Jean-Michel Jarre - Oxygene Trilogy - Side D.flac
Формат : FLAC
Формат/Информация : Free Lossless Audio Codec
Размер файла : 736 Мбайт
Продолжительность : 19 м.
Режим общего битрейта : Переменный
Общий поток : 5313 Кбит/сек
Альбом : Oxygene Trilogy
Трек/Всего : 4
Исполнитель : Jean-Michel Jarre
Жанр : Synth-pop, Ambient, Instrumental
Дата записи : 2016
Примечание : Box Set, 3LP, EU, 88985361872
cuesheet : REM GENRE Synth-pop, Ambient, Instrumental / REM DATE 2016 / REM COMMENT Box Set, 3LP, EU, 88985361872 / PERFORMER "Jean-Michel Jarre" / TITLE "Oxygene Trilogy" / FILE "Jean-Michel Jarre - Oxygene Trilogy - Side D.flac" WAVE / TRACK 10 AUDIO / TITLE "Oxygene (Part 10)" / INDEX 01 00:00:00 / TRACK 11 AUDIO / TITLE "Oxygene (Part 11)" / INDEX 01 04:18:15 / TRACK 12 AUDIO / TITLE "Oxygene (Part 12)" / INDEX 01 09:16:24 / TRACK 13 AUDIO / TITLE "Oxygene (Part 13)" / INDEX 01 14:57:00
INFO : / VinylRip by asdfvl / / Technics SL-1210MK2 + Lyra Delos / Musical Fidelity V-LPS / E-MU 1616M PCIe
Аудио
Формат : FLAC
Формат/Информация : Free Lossless Audio Codec
Продолжительность : 19 м.
Вид битрейта : Переменный
Битрейт : 5313 Кбит/сек
Каналы : 2 канала
Частота : 192 КГц
Битовая глубина : 24 бит
Размер потока : 736 Мбайт (100%)
Библиотека кодирования : libFLAC 1.3.0 (UTC 2013-05-26)
Общее
Полное имя : D:\Jean-Michel Jarre - 2016 - Oxygene Trilogy (3LP, EU, 88985361872) [24-192]\Jean-Michel Jarre - Oxygene Trilogy - Side E.flac
Формат : FLAC
Формат/Информация : Free Lossless Audio Codec
Размер файла : 680 Мбайт
Продолжительность : 19 м.
Режим общего битрейта : Переменный
Общий поток : 4972 Кбит/сек
Альбом : Oxygene Trilogy
Трек/Всего : 3
Исполнитель : Jean-Michel Jarre
Жанр : Synth-pop, Ambient, Instrumental
Дата записи : 2016
Примечание : Box Set, 3LP, EU, 88985361872
cuesheet : REM GENRE Synth-pop, Ambient, Instrumental / REM DATE 2016 / REM COMMENT Box Set, 3LP, EU, 88985361872 / PERFORMER "Jean-Michel Jarre" / TITLE "Oxygene Trilogy" / FILE "Jean-Michel Jarre - Oxygene Trilogy - Side E.flac" WAVE / TRACK 14 AUDIO / TITLE "Oxygene (Part 14)" / INDEX 01 00:00:00 / TRACK 15 AUDIO / TITLE "Oxygene (Part 15)" / INDEX 01 05:28:00 / TRACK 16 AUDIO / TITLE "Oxygene (Part 16)" / INDEX 01 12:09:00
INFO : / VinylRip by asdfvl / / Technics SL-1210MK2 + Lyra Delos / Musical Fidelity V-LPS / E-MU 1616M PCIe
Аудио
Формат : FLAC
Формат/Информация : Free Lossless Audio Codec
Продолжительность : 19 м.
Вид битрейта : Переменный
Битрейт : 4971 Кбит/сек
Каналы : 2 канала
Частота : 192 КГц
Битовая глубина : 24 бит
Размер потока : 680 Мбайт (100%)
Библиотека кодирования : libFLAC 1.3.0 (UTC 2013-05-26)
Общее
Полное имя : D:\Jean-Michel Jarre - 2016 - Oxygene Trilogy (3LP, EU, 88985361872) [24-192]\Jean-Michel Jarre - Oxygene Trilogy - Side F.flac
Формат : FLAC
Формат/Информация : Free Lossless Audio Codec
Размер файла : 738 Мбайт
Продолжительность : 20 м.
Режим общего битрейта : Переменный
Общий поток : 4923 Кбит/сек
Альбом : Oxygene Trilogy
Трек/Всего : 4
Исполнитель : Jean-Michel Jarre
Жанр : Synth-pop, Ambient, Instrumental
Дата записи : 2016
Примечание : Box Set, 3LP, EU, 88985361872
cuesheet : REM GENRE Synth-pop, Ambient, Instrumental / REM DATE 2016 / REM COMMENT Box Set, 3LP, EU, 88985361872 / PERFORMER "Jean-Michel Jarre" / TITLE "Oxygene Trilogy" / FILE "Jean-Michel Jarre - Oxygene Trilogy - Side F.flac" WAVE / TRACK 17 AUDIO / TITLE "Oxygene (Part 17)" / INDEX 01 00:00:00 / TRACK 18 AUDIO / TITLE "Oxygene (Part 18)" / INDEX 01 04:22:00 / TRACK 19 AUDIO / TITLE "Oxygene (Part 19)" / INDEX 01 07:10:60 / TRACK 20 AUDIO / TITLE "Oxygene (Part 20)" / INDEX 01 12:55:60
INFO : / VinylRip by asdfvl / / Technics SL-1210MK2 + Lyra Delos / Musical Fidelity V-LPS / E-MU 1616M PCIe
Аудио
Формат : FLAC
Формат/Информация : Free Lossless Audio Codec
Продолжительность : 20 м.
Вид битрейта : Переменный
Битрейт : 4922 Кбит/сек
Каналы : 2 канала
Частота : 192 КГц
Битовая глубина : 24 бит
Размер потока : 738 Мбайт (100%)
Библиотека кодирования : libFLAC 1.3.0 (UTC 2013-05-26)
Общее
Полное имя : D:\Jean-Michel Jarre - 2016 - Oxygene Trilogy (3LP, EU, 88985361872) [24-192]\Jean-Michel Jarre - Oxygene Trilogy - Side A.flac
Формат : FLAC
Формат/Информация : Free Lossless Audio Codec
Размер файла : 694 Мбайт
Продолжительность : 18 м.
Режим общего битрейта : Переменный
Общий поток : 5161 Кбит/сек
Альбом : Oxygene Trilogy
Трек/Всего : 3
Исполнитель : Jean-Michel Jarre
Жанр : Synth-pop, Ambient, Instrumental
Дата записи : 2016
Примечание : Box Set, 3LP, EU, 88985361872
cuesheet : REM GENRE Synth-pop, Ambient, Instrumental / REM DATE 2016 / REM COMMENT Box Set, 3LP, EU, 88985361872 / PERFORMER "Jean-Michel Jarre" / TITLE "Oxygene Trilogy" / FILE "Jean-Michel Jarre - Oxygene Trilogy - Side A.flac" WAVE / TRACK 01 AUDIO / TITLE "Oxygene (Part 1)" / INDEX 01 00:00:00 / TRACK 02 AUDIO / TITLE "Oxygene (Part 2)" / INDEX 01 07:40:00 / TRACK 03 AUDIO / TITLE "Oxygene (Part 3)" / INDEX 01 15:27:00
INFO : / VinylRip by asdfvl / / Technics SL-1210MK2 + Lyra Delos / Musical Fidelity V-LPS / E-MU 1616M PCIe
Аудио
Формат : FLAC
Формат/Информация : Free Lossless Audio Codec
Продолжительность : 18 м.
Вид битрейта : Переменный
Битрейт : 5161 Кбит/сек
Каналы : 2 канала
Частота : 192 КГц
Битовая глубина : 24 бит
Размер потока : 694 Мбайт (100%)
Библиотека кодирования : libFLAC 1.3.0 (UTC 2013-05-26)
Общее
Полное имя : D:\Jean-Michel Jarre - 2016 - Oxygene Trilogy (3LP, EU, 88985361872) [24-192]\Jean-Michel Jarre - Oxygene Trilogy - Side B.flac
Формат : FLAC
Формат/Информация : Free Lossless Audio Codec
Размер файла : 781 Мбайт
Продолжительность : 21 м.
Режим общего битрейта : Переменный
Общий поток : 5192 Кбит/сек
Альбом : Oxygene Trilogy
Трек/Всего : 3
Исполнитель : Jean-Michel Jarre
Жанр : Synth-pop, Ambient, Instrumental
Дата записи : 2016
Примечание : Box Set, 3LP, EU, 88985361872
cuesheet : REM GENRE Synth-pop, Ambient, Instrumental / REM DATE 2016 / REM COMMENT Box Set, 3LP, EU, 88985361872 / PERFORMER "Jean-Michel Jarre" / TITLE "Oxygene Trilogy" / FILE "Jean-Michel Jarre - Oxygene Trilogy - Side B.flac" WAVE / TRACK 04 AUDIO / TITLE "Oxygene (Part 4)" / INDEX 01 00:00:00 / TRACK 05 AUDIO / TITLE "Oxygene (Part 5)" / INDEX 01 04:07:00 / TRACK 06 AUDIO / TITLE "Oxygene (Part 6)" / INDEX 01 14:34:00
INFO : / VinylRip by asdfvl / / Technics SL-1210MK2 + Lyra Delos / Musical Fidelity V-LPS / E-MU 1616M PCIe
Аудио
Формат : FLAC
Формат/Информация : Free Lossless Audio Codec
Продолжительность : 21 м.
Вид битрейта : Переменный
Битрейт : 5192 Кбит/сек
Каналы : 2 канала
Частота : 192 КГц
Битовая глубина : 24 бит
Размер потока : 781 Мбайт (100%)
Библиотека кодирования : libFLAC 1.3.0 (UTC 2013-05-26)
Общее
Полное имя : D:\Jean-Michel Jarre - 2016 - Oxygene Trilogy (3LP, EU, 88985361872) [24-192]\Jean-Michel Jarre - Oxygene Trilogy - Side C.flac
Формат : FLAC
Формат/Информация : Free Lossless Audio Codec
Размер файла : 826 Мбайт
Продолжительность : 21 м.
Режим общего битрейта : Переменный
Общий поток : 5279 Кбит/сек
Альбом : Oxygene Trilogy
Трек/Всего : 3
Исполнитель : Jean-Michel Jarre
Жанр : Synth-pop, Ambient, Instrumental
Дата записи : 2016
Примечание : Box Set, 3LP, EU, 88985361872
cuesheet : REM GENRE Synth-pop, Ambient, Instrumental / REM DATE 2016 / REM COMMENT Box Set, 3LP, EU, 88985361872 / PERFORMER "Jean-Michel Jarre" / TITLE "Oxygene Trilogy" / FILE "Jean-Michel Jarre - Oxygene Trilogy - Side C.flac" WAVE / TRACK 07 AUDIO / TITLE "Oxygene (Part 7)" / INDEX 01 00:00:00 / TRACK 08 AUDIO / TITLE "Oxygene (Part 8)" / INDEX 01 11:42:60 / TRACK 09 AUDIO / TITLE "Oxygene (Part 9)" / INDEX 01 15:37:00
INFO : / VinylRip by asdfvl / / Technics SL-1210MK2 + Lyra Delos / Musical Fidelity V-LPS / E-MU 1616M PCIe
Аудио
Формат : FLAC
Формат/Информация : Free Lossless Audio Codec
Продолжительность : 21 м.
Вид битрейта : Переменный
Битрейт : 5279 Кбит/сек
Каналы : 2 канала
Частота : 192 КГц
Битовая глубина : 24 бит
Размер потока : 826 Мбайт (100%)
Библиотека кодирования : libFLAC 1.3.0 (UTC 2013-05-26)

[Цитировать]



Показать сообщения:    

Текущее время: 05-Окт 12:17

Часовой пояс: UTC + 6


Вы не можете начинать темы
Вы не можете отвечать на сообщения
Вы не можете редактировать свои сообщения
Вы не можете удалять свои сообщения
Вы не можете голосовать в опросах
Вы не можете прикреплять файлы к сообщениям
Вы не можете скачивать файлы

!ВНИМАНИЕ!
Сайт не предоставляет электронные версии произведений, а занимается лишь коллекционированием и каталогизацией ссылок, присылаемых и публикуемых на форуме нашими читателями. Если вы являетесь правообладателем какого-либо представленного материала и не желаете, чтобы ссылка на него находилась в нашем каталоге, свяжитесь с нами, и мы незамедлительно удалим ее. Файлы для обмена на трекере предоставлены пользователями сайта, и администрация не несет ответственности за их содержание. Просьба не заливать файлы, защищенные авторскими правами, а также файлы нелегального содержания!