***Уважаемые пользователи и гости !!! Сайт переехал на новый домен Torrents-club.info. Просьба изменить ваши закладки! ***
 
[ Сегодня идет свободное скачивание без начисления Download ]


Статистика раздачи
Нет
 
   
 
 
 
 
Легкие деньги / Free Money Информация о фильме
Название: Легкие деньги
Оригинальное название: Free Money
Год выхода: 1998
Жанр: комедия, криминал
Режиссер: Ив Симоне / Iv Simone
В ролях: Марлон Брандо , Дональд Сазерленд , Чарли Шин , Томас Хейден Черч , Мира Сорвино , Мартин Шин , Дэвид Аркетт , Жан Пьерр Бержерон , Реми Жирар
О фильме: Легко почувствовать себя узником, когда твой тесть — начальник тюрьмы, противозаконно и надолго сажающий за решетку не нравящихся ему людей. Бад и Ларри, взявшие в жены его дочерей, в полной мере ощутили все прелести семейной жизни под крылышком зверствующего в городе родственника по кличке «Швед»...

Страна: Канада
Студия: Filmline International, Sheen/Michaels Entertainment
Продолжительность: 01:34:05
Перевод #1: Профессиональный (многоголосый, закадровый)
Перевод #2: Авторский (одноголосый, закадровый) Ю.Сербин
Cубтитры : Русский, Английский
Контейнер: MKV
Качество: WEBRip 1080p
Видео: MPEG-4 AVC, High@L4, 10.9 Mb/s, 1 920 x 1 080, 23.976 fps
Аудио 1 : Русский (DTS, 6ch, 755 kb/s, 48.0 KHz) MVO
Аудио 2 : Русский (AC-3, 2ch, 192 kb/s, 48.0 KHz) AVO Ю.Сербин
Аудио 3 : Английский (E-AC-3, 2ch, 224 kb/s, 48.0 KHz)
Субтитры : Russian SRT, English SRT
Навигация по главам: есть
Глобальные тэги: есть

MI

Общее
Уникальный идентификатор : 209672814343138783528349921067959849954 (0x9DBD83E1F7AAC934AA1D1CF3C6CC13E2)
Полное имя : E:Легкие деньги Free money (1998).mkv
Формат : Matroska
Версия формата : Version 4 / Version 2
Размер файла : 7,93 Гбайт
Продолжительность : 1 ч. 34 м.
Режим общего битрейта : Переменный
Общий поток : 12,1 Мбит/сек
Название фильма : Легкие
Тип содержимого : Movie
Дата выпуска : 1998-12-03
Дата кодирования : UTC 2017-01-29 10:46:04
Программа кодирования : mkvmerge v9.8.0 ('Kuglblids') 64bit
Библиотека кодирования : libebml v1.3.4 + libmatroska v1.4.5
Обложка : Yes
Attachments : cover.jpg
ACTOR : Марлон Брандо , Дональд Сазерленд , Чарли Шин , Томас Хейден Черч , Мира Сорвино , Мартин Шин , Дэвид Аркетт , Жан Пьерр Бержерон , Реми Жирар
ARTIST : Марлон Брандо , Дональд Сазерленд , Чарли Шин , Томас Хейден Черч , Мира Сорвино , Мартин Шин , Дэвид Аркетт , Жан Пьерр Бержерон , Реми Жирар
DIRECTOR : Ив Симоно
GENRE : комедия, криминал
LAW_RATING : R
PRODUCER : Николас Клермон, Джозеф Братсмэн, Стюарт Хардинг
PRODUCTION_STUDIO : Filmline International
SCREENPLAY_BY : Тони Пек, Джозеф Братсмэн
SYNOPSIS : Легко почувствовать себя узником, когда твой тесть — начальник тюрьмы, противозаконно и надолго сажающий за решетку не нравящихся ему людей. Бад и Ларри, взявшие в жены его дочерей, в полной мере ощутили все прелести семейной жизни под крылышком зверствующего в городе родственника по кличке «Швед». Набравшись решимости изменить свою судьбу, они замышляют ограбление перевозящего деньги поезда. Совершив стремительный налет и неоднократно рискуя жизнью, они достигают намеченной цели. Транжиря направо и налево наворованный капитал, парни навлекают на себя подозрения не только своего грозного тестя, но и полиции. Рассвирепевший «Швед» начинает преследование пустившихся в бега Бада и Ларри, не подозревая, что за ним самим гонится ФБР, расследующее его многочисленные злодеяния.
Видео
Идентификатор : 1
Формат : AVC
Формат/Информация : Advanced Video Codec
Профиль формата : High@L4
Параметр CABAC формата : Да
Параметр ReFrames формата : 4 кадра
Идентификатор кодека : V_MPEG4/ISO/AVC
Продолжительность : 1 ч. 34 м.
Вид битрейта : Переменный
Битрейт : 10,9 Мбит/сек
Максимальный битрейт : 15,0 Мбит/сек
Ширина : 1920 пикселей
Высота : 1080 пикселей
Соотношение сторон : 16:9
Режим частоты кадров : Постоянный
Частота кадров : 23,976 (24000/1001) кадра/сек
Цветовое пространство : YUV
Субдискретизация насыщенности : 4:2:0
Битовая глубина : 8 бит
Тип развёртки : Прогрессивная
Бит/(Пиксели*Кадры) : 0.219
Размер потока : 7,16 Гбайт (90%)
Библиотека кодирования : x264 core 148 r2623 d5b2374
Настройки программы : cabac=1 / ref=4 / deblock=1:-1:-1 / analyse=0x3:0x133 / me=umh / subme=9 / psy=1 / psy_rd=1.00:0.15 / mixed_ref=1 / me_range=24 / chroma_me=1 / trellis=2 / 8x8dct=1 / cqm=0 / deadzone=21,11 / fast_pskip=1 / chroma_qp_offset=-3 / threads=34 / lookahead_threads=5 / sliced_threads=0 / nr=150 / decimate=1 / interlaced=0 / bluray_compat=0 / constrained_intra=0 / bframes=8 / b_pyramid=2 / b_adapt=2 / b_bias=0 / direct=3 / weightb=1 / open_gop=0 / weightp=2 / keyint=120 / keyint_min=61 / scenecut=0 / intra_refresh=0 / rc_lookahead=120 / rc=crf / mbtree=1 / crf=18.0 / qcomp=0.60 / qpmin=0 / qpmax=69 / qpstep=4 / vbv_maxrate=15000 / vbv_bufsize=31250 / crf_max=0.0 / nal_hrd=vbr / filler=0 / ip_ratio=1.40 / aq=3:1.00
Язык : English
Default : Да
Forced : Нет
Цветовой диапазон : Limited
Основные цвета : BT.709
Характеристики трансфера : BT.709
Коэффициенты матрицы : BT.709
Аудио #1
Идентификатор : 2
Формат : DTS
Формат/Информация : Digital Theater Systems
Режим : 16
Параметр Endianness формата : Big
Идентификатор кодека : A_DTS
Продолжительность : 1 ч. 34 м.
Вид битрейта : Постоянный
Битрейт : 755 Кбит/сек
Каналы : 6 каналов
Расположение каналов : Front: L C R, Side: L R, LFE
Частота : 48,0 КГц
Частота кадров : 93,750 кадра/сек (512 spf)
Битовая глубина : 24 бит
Метод сжатия : С потерями
Размер потока : 508 Мбайт (6%)
Заголовок : MVO
Язык : Russian
Default : Да
Forced : Нет
Аудио #2
Идентификатор : 3
Формат : AC-3
Формат/Информация : Audio Coding 3
Расширение режима : CM (complete main)
Параметр Endianness формата : Big
Идентификатор кодека : A_AC3
Продолжительность : 1 ч. 34 м.
Вид битрейта : Постоянный
Битрейт : 192 Кбит/сек
Каналы : 2 канала
Расположение каналов : Front: L R
Частота : 48,0 КГц
Частота кадров : 31,250 кадров/сек (1536 spf)
Битовая глубина : 16 бит
Метод сжатия : С потерями
Размер потока : 129 Мбайт (2%)
Заголовок : AVO Ю. Сербин
Язык : Russian
Default : Нет
Forced : Нет
Аудио #3
Идентификатор : 4
Формат : E-AC-3
Формат/Информация : Enhanced Audio Coding 3
Параметр Endianness формата : Big
Идентификатор кодека : A_EAC3
Продолжительность : 1 ч. 34 м.
Вид битрейта : Постоянный
Битрейт : 224 Кбит/сек
Каналы : 2 канала
Расположение каналов : Front: L R
Частота : 48,0 КГц
Частота кадров : 187,500 кадров/сек (256 spf)
Метод сжатия : С потерями
Размер потока : 151 Мбайт (2%)
Язык : English
Default : Нет
Forced : Нет
Текст #1
Идентификатор : 5
Формат : UTF-8
Идентификатор кодека : S_TEXT/UTF8
Идентификатор кодека/Информация : UTF-8 Plain Text
Продолжительность : 1 ч. 29 м.
Битрейт : 98 бит/сек
Count of elements : 1475
Размер потока : 64,6 Кбайт (0%)
Заголовок : SRT
Язык : Russian
Default : Да
Forced : Нет
Текст #2
Идентификатор : 6
Формат : UTF-8
Идентификатор кодека : S_TEXT/UTF8
Идентификатор кодека/Информация : UTF-8 Plain Text
Продолжительность : 1 ч. 28 м.
Битрейт : 78 бит/сек
Count of elements : 1875
Размер потока : 50,8 Кбайт (0%)
Заголовок : SRT
Язык : English
Default : Нет
Forced : Нет
Меню
00:00:00.000 : en:Chapter 1
00:00:40.042 : en:Chapter 2
00:08:29.907 : en:Chapter 3
00:16:29.950 : en:Chapter 4
00:25:45.529 : en:Chapter 5
00:34:37.000 : en:Chapter 6
00:42:12.392 : en:Chapter 7
00:51:18.754 : en:Chapter 8
01:00:19.944 : en:Chapter 9
01:08:46.389 : en:Chapter 10
01:16:26.118 : en:Chapter 11
01:22:46.515 : en:Chapter 12
01:29:07.621 : en:Chapter 13

Скриншоты

[Цитировать]



Показать сообщения:    

Текущее время: 24-Июн 09:34

Часовой пояс: UTC + 6


Вы не можете начинать темы
Вы не можете отвечать на сообщения
Вы не можете редактировать свои сообщения
Вы не можете удалять свои сообщения
Вы не можете голосовать в опросах
Вы не можете прикреплять файлы к сообщениям
Вы не можете скачивать файлы

!ВНИМАНИЕ!
Сайт не предоставляет электронные версии произведений, а занимается лишь коллекционированием и каталогизацией ссылок, присылаемых и публикуемых на форуме нашими читателями. Если вы являетесь правообладателем какого-либо представленного материала и не желаете, чтобы ссылка на него находилась в нашем каталоге, свяжитесь с нами, и мы незамедлительно удалим ее. Файлы для обмена на трекере предоставлены пользователями сайта, и администрация не несет ответственности за их содержание. Просьба не заливать файлы, защищенные авторскими правами, а также файлы нелегального содержания!