***Уважаемые пользователи и гости !!! Сайт переехал на новый домен Torrents-club.info. Просьба изменить ваши закладки! ***
 
[ Сегодня идет свободное скачивание без начисления Download ]


Статистика раздачи
Нет
 
   
 
 
 
 
Снайперы: Любовь под прицелом -Страна: Россия / Кинокомпания Леман, Марс Медиа Энтертейнмент
Жанр: драма, военный
Год выпуска: 2012
Продолжительность: 8 x ~00:50:00
Перевод: не требуется
Cубтитры: нет
Оригинальная аудиодорожка: русский
Режиссер: Зиновий Ройзман
В ролях: Татьяна Арнтгольц, Вольфганг Черны, Александр Устюгов, Андреас Хельги Шмид, Юрий Назаров, Дмитрий Быковский-Ромашов, Валерия Ланская, Светлана Устинова, Сергей Марин, Светлана Смирнова-Кацагаджиева...
Описание: Познакомились советская десятиклассница Катя со своим сверстником немцем Александром. И возникло между ними чувство, помешать которому, казалось, ничто не могло. Шел 39-й год, был подписан известный пакт о ненападении между Германией и Россией. А потом началась война... Наши герои встречаются в 43-ем по разные стороны баррикад в Днепропетровске. Немцы заминировали там гидроэлектростанцию. Задачей советских воинов было ее разминировать. И с той, и с другой стороны дежурили снайперы - нашу группу возглавляла Катя, немецкую - Александр. Что же случилось дальше? Победит ли Любовь?..

Качество: DVDRip (2 x DVD9 R5)
Формат: AVI
Видео: 720x400 (16:9), 25.000 fps, XViD ~ 2000 kbps avg, 0.278 bit/pixel
Аудио: 48 kHz, АС3 6 ch, 448 kbps, русский

MediaInfo

Общее
Полное имя : Snaypery.lubov.pod.pritselom.2012.O.DVDRip_[New-Team]_by_avproh1.avi
Формат : AVI
Формат/Информация : Audio Video Interleave
Размер файла : 884 Мбайт
Продолжительность : 50 м.
Общий поток : 2457 Кбит/сек
Программа кодирования : VirtualDubMod 1.5.10.3 | www.virtualdub-fr.org || (build 2550/release)
Библиотека кодирования : VirtualDubMod build 2550/release
Видео
Идентификатор : 0
Формат : MPEG-4 Visual
Профиль формата : Advanced Simple@L5
Параметр BVOP формата : 1
Параметр QPel формата : Нет
Параметр GMC формата : Без точки перехода
Параметр матрицы формата : Выборочная
Идентификатор кодека : XVID
Идентификатор кодека/Подсказка : XviD
Продолжительность : 50 м.
Битрейт : 2000 Кбит/сек
Ширина : 720 пикселей
Высота : 400 пикселей
Соотношение сторон : 16:9
Частота кадров : 25,000 кадров/сек
Цветовое пространство : YUV
Субдискретизация насыщенности : 4:2:0
Битовая глубина : 8 бит
Тип развёртки : Прогрессивная
Метод сжатия : С потерями
Бит/(Пиксели*Кадры) : 0.278
Размер потока : 720 Мбайт (81%)
Библиотека кодирования : XviD 73
Аудио
Идентификатор : 1
Формат : AC-3
Формат/Информация : Audio Coding 3
Расширение режима : CM (complete main)
Параметр Endianness формата : Big
Идентификатор кодека : 2000
Продолжительность : 50 м.
Вид битрейта : Постоянный
Битрейт : 448 Кбит/сек
Каналы : 6 каналов
Расположение каналов : Front: L C R, Side: L R, LFE
Частота : 48,0 КГц
Битовая глубина : 16 бит
Метод сжатия : С потерями
Размер потока : 161 Мбайт (18%)
Выравнивание : Разделение по промежуткам
Продолжительность промежутка : 40 мс. (1,00 видеокадр)
Время предзагрузки промежутка : 500 мс.

Скриншоты:

[Цитировать]



Показать сообщения:    

Текущее время: 07-Май 13:04

Часовой пояс: UTC + 6


Вы не можете начинать темы
Вы не можете отвечать на сообщения
Вы не можете редактировать свои сообщения
Вы не можете удалять свои сообщения
Вы не можете голосовать в опросах
Вы не можете прикреплять файлы к сообщениям
Вы не можете скачивать файлы

!ВНИМАНИЕ!
Сайт не предоставляет электронные версии произведений, а занимается лишь коллекционированием и каталогизацией ссылок, присылаемых и публикуемых на форуме нашими читателями. Если вы являетесь правообладателем какого-либо представленного материала и не желаете, чтобы ссылка на него находилась в нашем каталоге, свяжитесь с нами, и мы незамедлительно удалим ее. Файлы для обмена на трекере предоставлены пользователями сайта, и администрация не несет ответственности за их содержание. Просьба не заливать файлы, защищенные авторскими правами, а также файлы нелегального содержания!