***Уважаемые пользователи и гости !!! Сайт переехал на новый домен Torrents-club.info. Просьба изменить ваши закладки! ***
 
[ Сегодня идет свободное скачивание без начисления Download ]


Статистика раздачи
Нет
 
   
 
 
 
Houston Person - Island Episode (1997) Prestige- Год: 1997
Жанр: Post-Bop, Soul Jazz
Издание: Prestige - PRECD11007
Продолжительность: 00:52:13
Кодек: FLAC (tracks+.cue)
Битрейт: Lossless
Источник (релизер): artmuss
Страна-производитель диска: USA
Наличие сканов в содержимом раздачи: да
Треклист:
01.Nemo [06:56]
02.Let me be the one [04:41]
03.Don't misunderstand [04:08]
04.St. Thomas [06:30]
05.Theme from Baxter [05:07]
06.With you [04:21]
07.Montuno merengue [09:21]
08.Waking up alone [05:02]
09.St. Thomas (take 2) [06:11]

Отчёт EAC:

Exact Audio Copy V1.0 beta 3 from 29. August 2011
EAC extraction logfile from 19. July 2012, 0:06
Houston Person / Island episode
Used drive : PLEXTOR CD-R PX-W2410A Adapter: 2 ID: 0
Read mode : Secure
Utilize accurate stream : Yes
Defeat audio cache : Yes
Make use of C2 pointers : No
Read offset correction : 98
Overread into Lead-In and Lead-Out : No
Fill up missing offset samples with silence : Yes
Delete leading and trailing silent blocks : No
Null samples used in CRC calculations : Yes
Used interface : Native Win32 interface for Win NT & 2000
Gap handling : Appended to previous track
Used output format : User Defined Encoder
Selected bitrate : 1024 kBit/s
Quality : High
Add ID3 tag : No
Command line compressor : C:\Program Files\Exact Audio Copy\FLAC\FLAC.EXE
Additional command line options : -8 -V -T "ARTIST=%artist%" -T "TITLE=%title%" -T "ALBUM=%albumtitle%" -T "DATE=%year%" -T "TRACKNUMBER=%tracknr%" -T "GENRE=%genre%" -T "PERFORMER=%albuminterpret%" -T "COMPOSER=%composer%" %haslyrics%--tag-from-file=LYRICS="%lyricsfile%"%haslyrics% -T "ALBUMARTIST=%albumartist%" -T "DISCNUMBER=%cdnumber%" -T "TOTALDISCS=%totalcds%" -T "TOTALTRACKS=%numtracks%" -T "COMMENT=%comment%" %source%
TOC of the extracted CD
Track | Start | Length | Start sector | End sector
---------------------------------------------------------
1 | 0:00.00 | 6:55.20 | 0 | 31144
2 | 6:55.20 | 4:40.22 | 31145 | 52166
3 | 11:35.42 | 4:07.30 | 52167 | 70721
4 | 15:42.72 | 6:29.50 | 70722 | 99946
5 | 22:12.47 | 5:06.45 | 99947 | 122941
6 | 27:19.17 | 4:20.23 | 122942 | 142464
7 | 31:39.40 | 9:20.72 | 142465 | 184536
8 | 41:00.37 | 5:01.30 | 184537 | 207141
9 | 46:01.67 | 6:10.68 | 207142 | 234959
Track 1
Filename X:\EAC\Houston Person - Island episode (1973 Prestige 1997) [FLAC]\01. Nemo.wav
Pre-gap length 0:00:02.00
Peak level 100.0 %
Extraction speed 1.9 X
Track quality 100.0 %
Test CRC 0CCA504F
Copy CRC 0CCA504F
Track not present in AccurateRip database
Copy OK
Track 2
Filename X:\EAC\Houston Person - Island episode (1973 Prestige 1997) [FLAC]\02. Let me be the one.wav
Pre-gap length 0:00:04.35
Peak level 88.4 %
Extraction speed 1.9 X
Track quality 100.0 %
Test CRC 091F0A84
Copy CRC 091F0A84
Track not present in AccurateRip database
Copy OK
Track 3
Filename X:\EAC\Houston Person - Island episode (1973 Prestige 1997) [FLAC]\03. Don't misunderstand.wav
Pre-gap length 0:00:00.67
Peak level 87.2 %
Extraction speed 1.8 X
Track quality 100.0 %
Test CRC 1E1FC2A8
Copy CRC 1E1FC2A8
Track not present in AccurateRip database
Copy OK
Track 4
Filename X:\EAC\Houston Person - Island episode (1973 Prestige 1997) [FLAC]\04. St. Thomas.wav
Pre-gap length 0:00:01.27
Peak level 99.8 %
Extraction speed 1.9 X
Track quality 100.0 %
Test CRC CDDD949F
Copy CRC CDDD949F
Track not present in AccurateRip database
Copy OK
Track 5
Filename X:\EAC\Houston Person - Island episode (1973 Prestige 1997) [FLAC]\05. Theme from Baxter.wav
Pre-gap length 0:00:01.40
Peak level 100.0 %
Extraction speed 1.9 X
Track quality 100.0 %
Test CRC DB102A93
Copy CRC DB102A93
Track not present in AccurateRip database
Copy OK
Track 6
Filename X:\EAC\Houston Person - Island episode (1973 Prestige 1997) [FLAC]\06. With you.wav
Pre-gap length 0:00:01.00
Peak level 92.9 %
Extraction speed 1.8 X
Track quality 100.0 %
Test CRC 6A3F80AD
Copy CRC 6A3F80AD
Track not present in AccurateRip database
Copy OK
Track 7
Filename X:\EAC\Houston Person - Island episode (1973 Prestige 1997) [FLAC]\07. Montuno merengue.wav
Pre-gap length 0:00:01.40
Peak level 94.7 %
Extraction speed 1.9 X
Track quality 100.0 %
Test CRC 2D445B11
Copy CRC 2D445B11
Track not present in AccurateRip database
Copy OK
Track 8
Filename X:\EAC\Houston Person - Island episode (1973 Prestige 1997) [FLAC]\08. Waking up alone.wav
Pre-gap length 0:00:02.32
Peak level 99.3 %
Extraction speed 1.9 X
Track quality 100.0 %
Test CRC 2AA1C6B7
Copy CRC 2AA1C6B7
Track not present in AccurateRip database
Copy OK
Track 9
Filename X:\EAC\Houston Person - Island episode (1973 Prestige 1997) [FLAC]\09. St. Thomas (take 2).wav
Peak level 99.9 %
Extraction speed 1.8 X
Track quality 100.0 %
Test CRC DEB925C5
Copy CRC DEB925C5
Track not present in AccurateRip database
Copy OK
None of the tracks are present in the AccurateRip database
No errors occurred
End of status report
---- CUETools DB Plugin V2.1.3
[CTDB TOCID: CNM3BXtPAkWq0NS8qmuy_m4XbhI-] disk not present in database, Submit result: database access error: Запрос был прерван: Запрос отменен.
==== Log checksum A2B055679A9582E72410ACAD840CF381318EE5C39E40B9494798A9EA7F01B574 ====

Cue Sheet (.cue):

REM GENRE Jazz
REM DATE 1973
REM DISCID 770C3C09
REM COMMENT "ExactAudioCopy v1.0b3"
PERFORMER "Houston Person"
TITLE "Island episode"
FILE "01. Nemo.wav" WAVE
TRACK 01 AUDIO
TITLE "Nemo"
PERFORMER "Houston Person"
INDEX 01 00:00:00
TRACK 02 AUDIO
TITLE "Let me be the one"
PERFORMER "Houston Person"
INDEX 00 06:50:60
FILE "02. Let me be the one.wav" WAVE
INDEX 01 00:00:00
TRACK 03 AUDIO
TITLE "Don't misunderstand"
PERFORMER "Houston Person"
INDEX 00 04:39:30
FILE "03. Don't misunderstand.wav" WAVE
INDEX 01 00:00:00
TRACK 04 AUDIO
TITLE "St. Thomas"
PERFORMER "Houston Person"
INDEX 00 04:06:03
FILE "04. St. Thomas.wav" WAVE
INDEX 01 00:00:00
TRACK 05 AUDIO
TITLE "Theme from Baxter"
PERFORMER "Houston Person"
INDEX 00 06:28:10
FILE "05. Theme from Baxter.wav" WAVE
INDEX 01 00:00:00
TRACK 06 AUDIO
TITLE "With you"
PERFORMER "Houston Person"
INDEX 00 05:05:45
FILE "06. With you.wav" WAVE
INDEX 01 00:00:00
TRACK 07 AUDIO
TITLE "Montuno merengue"
PERFORMER "Houston Person"
INDEX 00 04:18:58
FILE "07. Montuno merengue.wav" WAVE
INDEX 01 00:00:00
TRACK 08 AUDIO
TITLE "Waking up alone"
PERFORMER "Houston Person"
INDEX 00 09:18:40
FILE "08. Waking up alone.wav" WAVE
INDEX 01 00:00:00
FILE "09. St. Thomas (take 2).wav" WAVE
TRACK 09 AUDIO
TITLE "St. Thomas (take 2)"
PERFORMER "Houston Person"
INDEX 01 00:00:00

Отчёт auCDtect Task manager:

-----------------------
DON'T MODIFY THIS FILE
-----------------------
PERFORMER: auCDtect Task Manager, ver. 1.6.0 RC1 build 1.6.0.1
Copyright (c) 2008-2010 y-soft. All rights reserved
http://y-soft.org
ANALYZER: auCDtect: CD records authenticity detector, version 0.8.2
Copyright (c) 2004 Oleg Berngardt. All rights reserved.
Copyright (c) 2004 Alexander Djourik. All rights reserved.
FILE: 09. St. Thomas (take 2).flac
Size: 37431821 Hash: F94F88F6B5E6EE9AB5E7F40656B62B4F Accuracy: -m0
Conclusion: MPEG 95%
Signature: 4DA31AF2B09D61895EC3813AF9D05B053ADC3ACE
FILE: 08. Waking up alone.flac
Size: 28349520 Hash: A4FF50461C92D4D9EB762F13F26EA314 Accuracy: -m0
Conclusion: CDDA 100%
Signature: 02274A080673BC47204F8DF09AF8C31CDF2244CB
FILE: 07. Montuno merengue.flac
Size: 50179646 Hash: A57F321FE250DD11A19C5ECE6EEDCEB2 Accuracy: -m0
Conclusion: CDDA 100%
Signature: 20F90593D5C94D5DACDF38DB47FC1602014B219F
FILE: 06. With you.flac
Size: 19575399 Hash: 6FB5324789B177D5E830EC0AD66E929A Accuracy: -m0
Conclusion: CDDA 100%
Signature: 4ADB6E2F20AC7273ACA5F2C3BF79DF92E1772ED2
FILE: 05. Theme from Baxter.flac
Size: 31089584 Hash: 93D1CBB5071E406236E1DF774EFA2CA2 Accuracy: -m0
Conclusion: CDDA 100%
Signature: 36DFF8E5D2D9958E68B7B33FBE239CCC681769A7
FILE: 04. St. Thomas.flac
Size: 38784751 Hash: 6DA5B9855050CE5887364B752F91C497 Accuracy: -m0
Conclusion: MPEG 95%
Signature: 7D3B71E77153801F43BCBA14D2ADB5BF56F8C413
FILE: 03. Don't misunderstand.flac
Size: 19322947 Hash: BF7EF6DDF1F1EDBFAA10F04DC305787F Accuracy: -m0
Conclusion: CDDA 99%
Signature: E1C45893187F0C4D54A73588BF9392DADD6463AD
FILE: 02. Let me be the one.flac
Size: 23439856 Hash: AA03137BF4221E71342D9F5CD6DC20E2 Accuracy: -m0
Conclusion: CDDA 100%
Signature: FDDD570CA8B5E9F8BCCB42DAE070409586FD3699
FILE: 01. Nemo.flac
Size: 43840529 Hash: 56B1D1139576175AF79CB47028D08A78 Accuracy: -m0
Conclusion: CDDA 99%
Signature: 17CAE0FF02F9E2D5C768AE6D325CA4924585CC73

Спектрограмма:

Состав

Houston Person - tenor sax
Babe Clark - tenor sax, baritone sax
Cecil Bridgwater - trumpet
Billy Butler - guitar
Ernie Hayes - organ
Gerry Jemmot - bass
Bernard Purdie - drums
Buddy Caldwell - congas

[Цитировать]



Показать сообщения:    

Текущее время: 06-Май 12:07

Часовой пояс: UTC + 6


Вы не можете начинать темы
Вы не можете отвечать на сообщения
Вы не можете редактировать свои сообщения
Вы не можете удалять свои сообщения
Вы не можете голосовать в опросах
Вы не можете прикреплять файлы к сообщениям
Вы не можете скачивать файлы

!ВНИМАНИЕ!
Сайт не предоставляет электронные версии произведений, а занимается лишь коллекционированием и каталогизацией ссылок, присылаемых и публикуемых на форуме нашими читателями. Если вы являетесь правообладателем какого-либо представленного материала и не желаете, чтобы ссылка на него находилась в нашем каталоге, свяжитесь с нами, и мы незамедлительно удалим ее. Файлы для обмена на трекере предоставлены пользователями сайта, и администрация не несет ответственности за их содержание. Просьба не заливать файлы, защищенные авторскими правами, а также файлы нелегального содержания!