***Уважаемые пользователи и гости !!! Сайт переехал на новый домен Torrents-club.info. Просьба изменить ваши закладки! ***
 
[ Сегодня идет свободное скачивание без начисления Download ]


Статистика раздачи
Нет
 
   
 
 
 
Tiёsto - Elements Of Life (Limited Vinyl Edition) (2007)- Год: 2007
Жанр: Trance
Продолжительность: 00:57:04
Лейбл: Magik Muzik
Каталог №: Magik Muzik LP 07-Тип рипа: tracks
Формат записи: 24 bit / 96 kHz
Формат раздачи: 24 bit / 96 kHz
Кодек: FLAC 2.0-Треклист:-A1. Tiesto - Ten Seconds Before Sunrise (7:28)
B1. Tiesto feat. JES - Everything (6:56)
C1. Tiesto - Carpe Noctum (6:58)
D1. Tiesto - Bright Morningstar (8:16)
E1. Tiesto feat. BT - Break My Fall (7:11)
F1. Tiesto feat. Maxi Jazz - Dance4Life (5:18)
G1. Tiesto - Elements Of Life (8:04)
H1. Pirates Of The Caribbean - He's A Pirate (Tiesto Remix) (6:58)-

Technical info:

Источник оцифровки: Zoli329
Состояние винила: Near Mint
Устройство воспроизведения: Pro-Ject Debut Carbon
Головка звукоснимателя: Ortofon 2M Red
Предварительный усилитель: Handmade
АЦП: Asus Xonar U7
Программа-оцифровщик: Adobe Audition 5 (ASIO mode)
Обработка: Clicks & pops removed individually (especially Side A)

Уровень записи / Спектральный анализ / АЧХ:

MediaInfo

Общее
Полное имя                               : D:\Tiesto - 4 Albums (Limited Vinyl Edition)\[Magik Muzik LP 07] Elements Of Life (2007)\A1. Tiesto - Ten Seconds Before Sunrise.flac
Формат                                   : FLAC
Формат/Информация                        : Free Lossless Audio Codec
Размер файла                             : 150 Мбайт
Продолжительность                        : 7 м. 27 с.
Режим общего битрейта                    : Переменный
Общий поток                              : 2810 Кбит/сек
Альбом                                   : Elements Of Life (Limited Vinyl Edition)
Трек                                     : Ten Seconds Before Sunrise
Трек/Положение                           : A1
Исполнитель                              : Tiesto
Жанр                                     : Trance
Дата записи                              : 2007
Аудио
Формат                                   : FLAC
Формат/Информация                        : Free Lossless Audio Codec
Продолжительность                        : 7 м. 27 с.
Вид битрейта                             : Переменный
Битрейт                                  : 2810 Кбит/сек
Каналы                                   : 2 канала
Частота                                  : 96,0 КГц
Битовая глубина                          : 24 бит
Размер потока                            : 150 Мбайт (100%)
Библиотека кодирования                   : libFLAC 1.2.1 (UTC 2007-09-17)
Общее
Полное имя                               : D:\Tiesto - 4 Albums (Limited Vinyl Edition)\[Magik Muzik LP 07] Elements Of Life (2007)\B1. Tiesto feat. JES - Everything.flac
Формат                                   : FLAC
Формат/Информация                        : Free Lossless Audio Codec
Размер файла                             : 145 Мбайт
Продолжительность                        : 6 м. 55 с.
Режим общего битрейта                    : Переменный
Общий поток                              : 2923 Кбит/сек
Альбом                                   : Elements Of Life (Limited Vinyl Edition)
Трек                                     : Everything
Трек/Положение                           : B1
Исполнитель                              : Tiesto feat. JES
Жанр                                     : Trance
Дата записи                              : 2007
Аудио
Формат                                   : FLAC
Формат/Информация                        : Free Lossless Audio Codec
Продолжительность                        : 6 м. 55 с.
Вид битрейта                             : Переменный
Битрейт                                  : 2923 Кбит/сек
Каналы                                   : 2 канала
Частота                                  : 96,0 КГц
Битовая глубина                          : 24 бит
Размер потока                            : 145 Мбайт (100%)
Библиотека кодирования                   : libFLAC 1.2.1 (UTC 2007-09-17)
Общее
Полное имя                               : D:\Tiesto - 4 Albums (Limited Vinyl Edition)\[Magik Muzik LP 07] Elements Of Life (2007)\C1. Tiesto - Carpe Noctum.flac
Формат                                   : FLAC
Формат/Информация                        : Free Lossless Audio Codec
Размер файла                             : 144 Мбайт
Продолжительность                        : 6 м. 57 с.
Режим общего битрейта                    : Переменный
Общий поток                              : 2895 Кбит/сек
Альбом                                   : Elements Of Life (Limited Vinyl Edition)
Трек                                     : Carpe Noctum
Трек/Положение                           : C1
Исполнитель                              : Tiesto
Жанр                                     : Trance
Дата записи                              : 2007
Аудио
Формат                                   : FLAC
Формат/Информация                        : Free Lossless Audio Codec
Продолжительность                        : 6 м. 57 с.
Вид битрейта                             : Переменный
Битрейт                                  : 2894 Кбит/сек
Каналы                                   : 2 канала
Частота                                  : 96,0 КГц
Битовая глубина                          : 24 бит
Размер потока                            : 144 Мбайт (100%)
Библиотека кодирования                   : libFLAC 1.2.1 (UTC 2007-09-17)
Общее
Полное имя                               : D:\Tiesto - 4 Albums (Limited Vinyl Edition)\[Magik Muzik LP 07] Elements Of Life (2007)\D1. Tiesto - Bright Morningstar.flac
Формат                                   : FLAC
Формат/Информация                        : Free Lossless Audio Codec
Размер файла                             : 162 Мбайт
Продолжительность                        : 8 м. 16 с.
Режим общего битрейта                    : Переменный
Общий поток                              : 2738 Кбит/сек
Альбом                                   : Elements Of Life (Limited Vinyl Edition)
Трек                                     : Bright Morningstar
Трек/Положение                           : D1
Исполнитель                              : Tiesto
Жанр                                     : Trance
Дата записи                              : 2007
Аудио
Формат                                   : FLAC
Формат/Информация                        : Free Lossless Audio Codec
Продолжительность                        : 8 м. 16 с.
Вид битрейта                             : Переменный
Битрейт                                  : 2738 Кбит/сек
Каналы                                   : 2 канала
Частота                                  : 96,0 КГц
Битовая глубина                          : 24 бит
Размер потока                            : 162 Мбайт (100%)
Библиотека кодирования                   : libFLAC 1.2.1 (UTC 2007-09-17)
Общее
Полное имя                               : D:\Tiesto - 4 Albums (Limited Vinyl Edition)\[Magik Muzik LP 07] Elements Of Life (2007)\E1. Tiesto feat. BT - Break My Fall.flac
Формат                                   : FLAC
Формат/Информация                        : Free Lossless Audio Codec
Размер файла                             : 151 Мбайт
Продолжительность                        : 7 м. 10 с.
Режим общего битрейта                    : Переменный
Общий поток                              : 2933 Кбит/сек
Альбом                                   : Elements Of Life (Limited Vinyl Edition)
Трек                                     : Break My Fall
Трек/Положение                           : E1
Исполнитель                              : Tiesto feat. BT
Жанр                                     : Trance
Дата записи                              : 2007
Аудио
Формат                                   : FLAC
Формат/Информация                        : Free Lossless Audio Codec
Продолжительность                        : 7 м. 10 с.
Вид битрейта                             : Переменный
Битрейт                                  : 2932 Кбит/сек
Каналы                                   : 2 канала
Частота                                  : 96,0 КГц
Битовая глубина                          : 24 бит
Размер потока                            : 151 Мбайт (100%)
Библиотека кодирования                   : libFLAC 1.2.1 (UTC 2007-09-17)
Общее
Полное имя                               : D:\Tiesto - 4 Albums (Limited Vinyl Edition)\[Magik Muzik LP 07] Elements Of Life (2007)\F1. Tiesto feat. Maxi Jazz - Dance4Life.flac
Формат                                   : FLAC
Формат/Информация                        : Free Lossless Audio Codec
Размер файла                             : 106 Мбайт
Продолжительность                        : 5 м. 18 с.
Режим общего битрейта                    : Переменный
Общий поток                              : 2791 Кбит/сек
Альбом                                   : Elements Of Life (Limited Vinyl Edition)
Трек                                     : Dance4Life
Трек/Положение                           : F1
Исполнитель                              : Tiesto feat. Maxi Jazz
Жанр                                     : Trance
Дата записи                              : 2007
Аудио
Формат                                   : FLAC
Формат/Информация                        : Free Lossless Audio Codec
Продолжительность                        : 5 м. 18 с.
Вид битрейта                             : Переменный
Битрейт                                  : 2791 Кбит/сек
Каналы                                   : 2 канала
Частота                                  : 96,0 КГц
Битовая глубина                          : 24 бит
Размер потока                            : 106 Мбайт (100%)
Библиотека кодирования                   : libFLAC 1.2.1 (UTC 2007-09-17)
Общее
Полное имя                               : D:\Tiesto - 4 Albums (Limited Vinyl Edition)\[Magik Muzik LP 07] Elements Of Life (2007)\G1. Tiesto - Elements Of Life.flac
Формат                                   : FLAC
Формат/Информация                        : Free Lossless Audio Codec
Размер файла                             : 167 Мбайт
Продолжительность                        : 8 м. 3 с.
Режим общего битрейта                    : Переменный
Общий поток                              : 2898 Кбит/сек
Альбом                                   : Elements Of Life (Limited Vinyl Edition)
Трек                                     : Elements Of Life
Трек/Положение                           : G1
Исполнитель                              : Tiesto
Жанр                                     : Trance
Дата записи                              : 2007
Аудио
Формат                                   : FLAC
Формат/Информация                        : Free Lossless Audio Codec
Продолжительность                        : 8 м. 3 с.
Вид битрейта                             : Переменный
Битрейт                                  : 2898 Кбит/сек
Каналы                                   : 2 канала
Частота                                  : 96,0 КГц
Битовая глубина                          : 24 бит
Размер потока                            : 167 Мбайт (100%)
Библиотека кодирования                   : libFLAC 1.2.1 (UTC 2007-09-17)
Общее
Полное имя                               : D:\Tiesto - 4 Albums (Limited Vinyl Edition)\[Magik Muzik LP 07] Elements Of Life (2007)\H1. Pirates Of The Caribbean - He's A Pirate (Tiesto Remix).flac
Формат                                   : FLAC
Формат/Информация                        : Free Lossless Audio Codec
Размер файла                             : 143 Мбайт
Продолжительность                        : 6 м. 58 с.
Режим общего битрейта                    : Переменный
Общий поток                              : 2871 Кбит/сек
Альбом                                   : Elements Of Life (Limited Vinyl Edition)
Трек                                     : He's A Pirate (Tiesto Remix)
Трек/Положение                           : H1
Исполнитель                              : Pirates Of The Caribbean
Жанр                                     : Trance
Дата записи                              : 2007
Аудио
Формат                                   : FLAC
Формат/Информация                        : Free Lossless Audio Codec
Продолжительность                        : 6 м. 58 с.
Вид битрейта                             : Переменный
Битрейт                                  : 2871 Кбит/сек
Каналы                                   : 2 канала
Частота                                  : 96,0 КГц
Битовая глубина                          : 24 бит
Размер потока                            : 143 Мбайт (100%)
Библиотека кодирования                   : libFLAC 1.2.1 (UTC 2007-09-17)

[Цитировать]



Показать сообщения:    

Текущее время: 09-Май 07:56

Часовой пояс: UTC + 6


Вы не можете начинать темы
Вы не можете отвечать на сообщения
Вы не можете редактировать свои сообщения
Вы не можете удалять свои сообщения
Вы не можете голосовать в опросах
Вы не можете прикреплять файлы к сообщениям
Вы не можете скачивать файлы

!ВНИМАНИЕ!
Сайт не предоставляет электронные версии произведений, а занимается лишь коллекционированием и каталогизацией ссылок, присылаемых и публикуемых на форуме нашими читателями. Если вы являетесь правообладателем какого-либо представленного материала и не желаете, чтобы ссылка на него находилась в нашем каталоге, свяжитесь с нами, и мы незамедлительно удалим ее. Файлы для обмена на трекере предоставлены пользователями сайта, и администрация не несет ответственности за их содержание. Просьба не заливать файлы, защищенные авторскими правами, а также файлы нелегального содержания!