***Уважаемые пользователи и гости !!! Сайт переехал на новый домен Torrents-club.info. Просьба изменить ваши закладки! ***
 
[ Сегодня идет свободное скачивание без начисления Download ]


Статистика раздачи
Нет
 
   
 
 
 
 
Девятая жизнь Луи Дракса / The 9th Life of Louis Drax
«A mystery beyond reality»
- Год выпуска: 2016
Страна: Великобритания, Канада, США
Производство: Blank Tape, Brightlight Pictures Inc., Fire Axe Pictures, Miramax Films
Жанр: Триллер, детектив
Режиссёр: Александр Ажа
В ролях: Джейми Дорнан, Эйден Лонгуорт, Сара Гадон, Аарон Пол, Оливер Плэтт, Молли Паркер, Джулиан Уэдэм, Джейн МакГрегор, Барбара Хёрши, Анджали Джай, Майкл Адамуэйт, Бэкхам Скойе
Перевод: Дублированный | iTunes
Субтитры: Английские
Описание: Знаменитый психолог Аллан Паскаль пытается раскрыть тайны, которые хранит сознание 9-летнего Луи Дракса, впавшего в кому после таинственного несчастного случая. Влюбленный в мать мальчика доктор подозревает в случившемся отца. Но чем глубже он погружается в подсознание ребенка, тем сильнее размываются границы между мистикой и реальностью…

Качество: BDRip-AVC
Продолжительность: 01:48:12
Формат: MKV
Видео кодек: x264
Аудио кодек: AC3
Видео: 720x302 (2.40:1), 23,976 fps, x264 ~1545 kbps avg, 0.296 bit/pixel
Аудио: 48 kHz, AC3 Dolby Digital, 3/2 (L,C,R,l,r) + LFE ch, ~384.00 kbps avg | iTunes RUS
Дата премьеры (мир): 1 сентября 2016
Дата премьеры (РФ): 1 сентября 2016, «Парадиз»

MediaInfo

Общее
Уникальный идентификатор : 224509711988255357382587573505038156024 (0xA8E6FF6A1454E328A4C2723D1A9300F8)
Полное имя : D:The.9th.Life.Of.Louis.Drax.2016.BDRip(AVC).ExKinoRay.mkv
Формат : Matroska
Версия формата : Version 2
Размер файла : 1,47 Гбайт
Продолжительность : 1 ч. 48 м.
Общий поток : 1946 Кбит/сек
Название фильма : THE_9TH_LIFE_OF_LOUIS_DRAX #TorpedoUK#
Дата кодирования : UTC 2017-01-30 08:29:43
Программа кодирования : mkvmerge v7.8.0 ('River Man') 32bit built on Apr 3 2015 12:11:22
Библиотека кодирования : libebml v1.3.1 + libmatroska v1.4.2
Видео
Идентификатор : 1
Формат : AVC
Формат/Информация : Advanced Video Codec
Профиль формата : High@L4.1
Параметр CABAC формата : Да
Параметр ReFrames формата : 10 кадров
Идентификатор кодека : V_MPEG4/ISO/AVC
Продолжительность : 1 ч. 48 м.
Битрейт : 1545 Кбит/сек
Ширина : 720 пикселей
Высота : 302 пикселя
Соотношение сторон : 2,40:1
Режим частоты кадров : Постоянный
Частота кадров : 23,976 (24000/1001) кадра/сек
Цветовое пространство : YUV
Субдискретизация насыщенности : 4:2:0
Битовая глубина : 8 бит
Тип развёртки : Прогрессивная
Бит/(Пиксели*Кадры) : 0.296
Размер потока : 1,15 Гбайт (78%)
Библиотека кодирования : x264 core 146 r2538 121396c
Настройки программы : cabac=1 / ref=10 / deblock=1:-3:-3 / analyse=0x3:0x133 / me=umh / subme=10 / psy=1 / psy_rd=0.00:0.03 / mixed_ref=1 / me_range=48 / chroma_me=1 / trellis=2 / 8x8dct=1 / cqm=0 / deadzone=21,11 / fast_pskip=0 / chroma_qp_offset=-1 / threads=6 / lookahead_threads=1 / sliced_threads=0 / nr=0 / decimate=0 / interlaced=0 / bluray_compat=0 / constrained_intra=0 / bframes=10 / b_pyramid=2 / b_adapt=2 / b_bias=0 / direct=3 / weightb=1 / open_gop=0 / weightp=2 / keyint=240 / keyint_min=23 / scenecut=40 / intra_refresh=0 / rc_lookahead=40 / rc=2pass / mbtree=0 / bitrate=1545 / ratetol=1.0 / qcomp=0.60 / qpmin=0 / qpmax=69 / qpstep=4 / cplxblur=20.0 / qblur=0.5 / vbv_maxrate=50000 / vbv_bufsize=62500 / nal_hrd=none / filler=0 / ip_ratio=1.40 / pb_ratio=1.30 / aq=1:1.00
Default : Да
Forced : Нет
Аудио
Идентификатор : 2
Формат : AC-3
Формат/Информация : Audio Coding 3
Расширение режима : CM (complete main)
Параметр Endianness формата : Big
Идентификатор кодека : A_AC3
Продолжительность : 1 ч. 48 м.
Вид битрейта : Постоянный
Битрейт : 384 Кбит/сек
Каналы : 6 каналов
Расположение каналов : Front: L C R, Side: L R, LFE
Частота : 48,0 КГц
Частота кадров : 31,250 кадров/сек (1536 spf)
Битовая глубина : 16 бит
Метод сжатия : С потерями
Размер потока : 297 Мбайт (20%)
Язык : Russian
Default : Да
Forced : Нет
Текст
Идентификатор : 3
Формат : PGS
Режим смешивания : zlib
Идентификатор кодека : S_HDMV/PGS
Идентификатор кодека/Информация : Picture based subtitle format used on BDs/HD-DVDs
Язык : English
Default : Да
Forced : Нет
Меню
00:00:00.000 : en:Chapter 1
00:06:47.365 : en:Chapter 2
00:12:14.817 : en:Chapter 3
00:17:22.290 : en:Chapter 4
00:22:47.656 : en:Chapter 5
00:30:06.054 : en:Chapter 6
00:37:27.661 : en:Chapter 7
00:43:14.382 : en:Chapter 8
00:48:41.293 : en:Chapter 9
00:57:06.505 : en:Chapter 10
01:02:41.047 : en:Chapter 11
01:07:14.070 : en:Chapter 12
01:14:28.255 : en:Chapter 13
01:20:15.393 : en:Chapter 14
01:25:10.395 : en:Chapter 15
01:38:36.033 : en:Chapter 16

Скриншоты



[Цитировать]

Топик был перенесен из форума Новинки кинопроката в форум Триллер
Scorpio



Показать сообщения:    

Текущее время: 12-Май 02:33

Часовой пояс: UTC + 6


Вы не можете начинать темы
Вы не можете отвечать на сообщения
Вы не можете редактировать свои сообщения
Вы не можете удалять свои сообщения
Вы не можете голосовать в опросах
Вы не можете прикреплять файлы к сообщениям
Вы не можете скачивать файлы

!ВНИМАНИЕ!
Сайт не предоставляет электронные версии произведений, а занимается лишь коллекционированием и каталогизацией ссылок, присылаемых и публикуемых на форуме нашими читателями. Если вы являетесь правообладателем какого-либо представленного материала и не желаете, чтобы ссылка на него находилась в нашем каталоге, свяжитесь с нами, и мы незамедлительно удалим ее. Файлы для обмена на трекере предоставлены пользователями сайта, и администрация не несет ответственности за их содержание. Просьба не заливать файлы, защищенные авторскими правами, а также файлы нелегального содержания!