***Уважаемые пользователи и гости !!! Сайт переехал на новый домен Torrents-club.info. Просьба изменить ваши закладки! ***
 
[ Сегодня идет свободное скачивание без начисления Download ]


Статистика раздачи
Нет
 
   
 
 
 
 
Прибытие / Arrival Информация о фильме
Название: Прибытие
Оригинальное название: Arrival
Год выхода: 2016
Жанр: фантастика, триллер, драма, детектив, экранизация
Режиссер: Дени Вильнёв
В ролях: Эми Адамс, Джереми Реннер, Майкл Стулбарг, Форест Уитакер, Сангита Патель, Марк О’Брайэн, Эбигейл Пнёвски, Ци Ма, Натали Тибо, Рут Чианг
О фильме:
В разных уголках планеты внезапно появляются неопознанные летающие объекты. Они мирно зависают над поверхностью и всем своим видом демонстрируют полное равнодушие к населению. Цели их визита неизвестны, язык не узнаваем и вообще никто ничего не понимает. Стремясь установить с инопланетянами контакт, и обойтись без танковых клиньев, правительство привлекает к этому крайне запутанному делу лингвиста Луизу Бэнкс и физика Яна Доннели. Им необходимо понять замыслы пришельцев до того, пока кто-нибудь из военных на почве нервного срыва не решится превратить весь мир в могильник с ядерными отходами. В основе фильма лежит повесть Теда Чана «История твоей жизни» (Story of Your Life, 1998).

Страна: США, 21 Laps Entertainment, FilmNation Entertainment, Lava Bear Films
Продолжительность: 01:56:55
Перевод: Любительский (многоголосый закадровый) Paradox&OMSKBIRD
Файл
Кодек: MPEG-4 AVC/H.264
Качество: WEB-DL 1080p
Видео: 1 916x800 (2.40:1), 23.976 кадр/сек, ~4545 kbps, 0.124 бит/пиксели
Звук:
Аудио rus: AC-3, 3/2 (L,C,R,l,r) + LFE ch, 48,0 КГц, 384 Кбит/сек
Аудио eng: AC-3, 3/2 (L,C,R,l,r) + LFE ch, 48,0 КГц, 384 Кбит/сек
Субтитры: английские
Реклама:присутствуют аудио вставки рекламы
Семпл

Релиз:

[Студия "Paradox" & Omskbird records]
• Роли озвучивали: Маргарита Корш, Максим Максимов, Павел Ярощик, Денис Строев Наталья Ланц, Семён Ващенко
• Перевод: Егор Ярославцев
• Звукорежиссер: Павел Квентов

MediaInfo

General
Unique ID : 210896952359104349426669855808166115293 (0x9EA9468BF112A1779A30AF34C50137DD)
Complete name : G:FilmsArrival.2016.1080pArrival.2016.1080p.WEB-DL.DD5.1.Paradox & OMSKBIRD.mkv
Format : Matroska
Format version : Version 4 / Version 2
File size : 4.33 GiB
Duration : 1h 56mn
Overall bit rate : 5 314 Kbps
Encoded date : UTC 2017-01-31 13:48:59
Writing application : mkvmerge v9.7.1 ('Pandemonium') 64bit
Writing library : libebml v1.3.4 + libmatroska v1.4.5
Video
ID : 1
Format : AVC
Format/Info : Advanced Video Codec
Format profile : High@L4
Format settings, CABAC : Yes
Format settings, ReFrames : 5 frames
Codec ID : V_MPEG4/ISO/AVC
Duration : 1h 56mn
Bit rate : 4 545 Kbps
Width : 1 916 pixels
Height : 800 pixels
Display aspect ratio : 2.40:1
Frame rate mode : Constant
Frame rate : 23.976 fps
Color space : YUV
Chroma subsampling : 4:2:0
Bit depth : 8 bits
Scan type : Progressive
Bits/(Pixel*Frame) : 0.124
Stream size : 3.70 GiB (86%)
Language : English
Default : Yes
Forced : No
Color range : Limited
Color primaries : BT.709
Transfer characteristics : BT.709
Matrix coefficients : BT.709
Audio #1
ID : 2
Format : AC-3
Format/Info : Audio Coding 3
Mode extension : CM (complete main)
Format settings, Endianness : Big
Codec ID : A_AC3
Duration : 1h 56mn
Bit rate mode : Constant
Bit rate : 384 Kbps
Channel(s) : 6 channels
Channel positions : Front: L C R, Side: L R, LFE
Sampling rate : 48.0 KHz
Frame rate : 31.250 fps (1536 spf)
Compression mode : Lossy
Stream size : 320 MiB (7%)
Title : Paradox & OMSKBIRD
Language : Russian
Default : Yes
Forced : No
Audio #2
ID : 3
Format : AC-3
Format/Info : Audio Coding 3
Mode extension : CM (complete main)
Format settings, Endianness : Big
Codec ID : A_AC3
Duration : 1h 56mn
Bit rate mode : Constant
Bit rate : 384 Kbps
Channel(s) : 6 channels
Channel positions : Front: L C R, Side: L R, LFE
Sampling rate : 48.0 KHz
Frame rate : 31.250 fps (1536 spf)
Compression mode : Lossy
Stream size : 320 MiB (7%)
Title : eng
Language : English
Default : No
Forced : No
Text
ID : 4
Format : UTF-8
Codec ID : S_TEXT/UTF8
Codec ID/Info : UTF-8 Plain Text
Duration : 1h 48mn
Bit rate : 53 bps
Count of elements : 1240
Stream size : 42.6 KiB (0%)
Language : English
Default : No
Forced : No
Menu
00:00:00.000 : en:Chapter 1
00:09:48.000 : en:Chapter 2
00:17:32.000 : en:Chapter 3
00:23:27.000 : en:Chapter 4
00:33:53.000 : en:Chapter 5
00:41:00.000 : en:Chapter 6
00:52:25.000 : en:Chapter 7
00:57:33.000 : en:Chapter 8
01:03:05.000 : en:Chapter 9
01:09:28.000 : en:Chapter 10
01:16:08.000 : en:Chapter 11
01:25:20.000 : en:Chapter 12
01:35:36.000 : en:Chapter 13
01:45:25.000 : en:Chapter 14

Скриншоты

[Цитировать]

Топик был перенесен из форума Новинки кинопроката в форум Новинки кинопроката (HD Video)
Scorpio



Показать сообщения:    

Текущее время: 19-Июн 05:16

Часовой пояс: UTC + 6


Вы не можете начинать темы
Вы не можете отвечать на сообщения
Вы не можете редактировать свои сообщения
Вы не можете удалять свои сообщения
Вы не можете голосовать в опросах
Вы не можете прикреплять файлы к сообщениям
Вы не можете скачивать файлы

!ВНИМАНИЕ!
Сайт не предоставляет электронные версии произведений, а занимается лишь коллекционированием и каталогизацией ссылок, присылаемых и публикуемых на форуме нашими читателями. Если вы являетесь правообладателем какого-либо представленного материала и не желаете, чтобы ссылка на него находилась в нашем каталоге, свяжитесь с нами, и мы незамедлительно удалим ее. Файлы для обмена на трекере предоставлены пользователями сайта, и администрация не несет ответственности за их содержание. Просьба не заливать файлы, защищенные авторскими правами, а также файлы нелегального содержания!