***Уважаемые пользователи и гости !!! Сайт переехал на новый домен Torrents-club.info. Просьба изменить ваши закладки! ***
 
[ Сегодня идет свободное скачивание без начисления Download ]


Статистика раздачи
Нет
 
   
 
 
 
 
Афера под прикрытием / The Infiltrator- Производство: Великобритания
Жанр: Триллер, Драма, Криминал
Режиссер: Брэд Фурман
Актеры: Брайан Крэнстон, Лиэнн Бест, Дэниэл Мейс, Том Вон-Лолор, Ниал Хэйес, Лара Дэкаро, Джульетт Обри, Олимпия Дукакис, Эми Райан, Джон Легуизамо.
Описание:
Федеральный агент Боб Мейзур, специалист по внедрению в преступные группировки, ставит себе целью раскрыть схему отмывания денег наркокартеля Пабло Эскобара. В одной команде со вспыльчивым оперативником Эмиром Абреу, а также начинающим агентом Кэти Эртс, исполняющей роль подставной невесты Боба, ему предстоит провернуть самую рискованную операцию под прикрытием в истории.
Рейтинг MPAA: R (лицам до 17 лет обязательно присутствие взрослого)
Дата мировой премьеры: 6 июля 2016
Дата российской премьеры: 11 августа 2016, «Вольга»
Продолжительность: 02:07:08
Качество видео: BDRip
Перевод: Дублированный (Русский iTunes), Дублированный (Украинский iTunes), Авторский (одноголосый, закадровый) (Антон Киреев) (ненормативная лексика)
Язык субтитров: Английский
Вид субтитров: Вшитые отключаемые
Видео: AVC/H.264, 1920x804, ~12500 kbps
Аудио: AC3, 6 ch, 384 kbps, CBR - Русский
Аудио: AC3, 6 ch, 640 kbps, CBR - Киреев
Аудио: AC3, 6 ch, 384 kbps, CBR - Украинский
Аудио: AC3, 6 ch, 640 kbps, CBR - Английский

Mediainfo:

Общее
Уникальный идентификатор : 242692971633785538477566349428541536023 (0xB694F754B36D4A9982C0094FD58AB717)
Полное имя : The Infiltrator.2016.BDRip.1080p.mkv
Формат : Matroska
Версия формата : Version 2
Размер файла : 12,9 Гбайт
Продолжительность : 2 ч. 7 м.
Общий поток : 14,5 Мбит/сек
Дата кодирования : UTC 2016-11-02 20:50:27
Программа кодирования : mkvmerge v4.0.0 ('The Stars were mine') сборка от Jun 6 2010 16:18:42
Библиотека кодирования : libebml v1.0.0 + libmatroska v1.0.0
Видео
Идентификатор : 1
Формат : AVC
Формат/Информация : Advanced Video Codec
Профиль формата : High@L4.1
Параметр CABAC формата : Да
Параметр ReFrames формата : 5 кадров
Идентификатор кодека : V_MPEG4/ISO/AVC
Продолжительность : 2 ч. 7 м.
Битрейт : 12,5 Мбит/сек
Ширина : 1920 пикселей
Высота : 804 пикселя
Соотношение сторон : 2,40:1
Режим частоты кадров : Постоянный
Частота кадров : 23,976 (24000/1001) кадра/сек
Цветовое пространство : YUV
Субдискретизация насыщенности : 4:2:0
Битовая глубина : 8 бит
Тип развёртки : Прогрессивная
Бит/(Пиксели*Кадры) : 0.338
Размер потока : 10,8 Гбайт (84%)
Библиотека кодирования : x264 core 142 r2431+42 c69a006 tMod [8-bit@all X86_64]
Настройки программы : cabac=1 / ref=5 / deblock=1:-3:-3 / analyse=0x3:0x133 / me=umh / subme=11 / psy=1 / fade_compensate=0.00 / psy_rd=1.05:1.08 / mixed_ref=1 / me_range=48 / chroma_me=1 / trellis=2 / 8x8dct=1 / cqm=0 / deadzone=21,11 / fast_pskip=0 / chroma_qp_offset=-4 / threads=16 / lookahead_threads=4 / sliced_threads=0 / nr=0 / decimate=0 / interlaced=0 / bluray_compat=0 / constrained_intra=0 / fgo=0 / bframes=10 / b_pyramid=2 / b_adapt=2 / b_bias=0 / direct=3 / weightb=1 / open_gop=0 / weightp=2 / keyint=240 / keyint_min=23 / scenecut=40 / intra_refresh=0 / rc_lookahead=150 / rc=2pass / mbtree=0 / bitrate=12500 / ratetol=1.0 / qcomp=0.80 / qpmin=0:0:0 / qpmax=69:69:69 / qpstep=4 / cplxblur=20.0 / qblur=0.5 / vbv_maxrate=40000 / vbv_bufsize=30000 / nal_hrd=none / filler=0 / ip_ratio=1.40 / pb_ratio=1.30 / aq=2:0.68 / aq-sensitivity=10.00 / aq-factor=1.00:1.00:1.00 / aq2=0 / aq3=0
Язык : English
Default : Нет
Forced : Нет
Цветовой диапазон : Limited
Основные цвета : BT.709
Характеристики трансфера : BT.709
Коэффициенты матрицы : BT.709
Аудио #1
Идентификатор : 2
Формат : AC-3
Формат/Информация : Audio Coding 3
Расширение режима : CM (complete main)
Параметр Endianness формата : Big
Идентификатор кодека : A_AC3
Продолжительность : 2 ч. 7 м.
Вид битрейта : Постоянный
Битрейт : 384 Кбит/сек
Каналы : 6 каналов
Расположение каналов : Front: L C R, Side: L R, LFE
Частота : 48,0 КГц
Частота кадров : 31,250 кадров/сек (1536 spf)
Битовая глубина : 16 бит
Метод сжатия : С потерями
Размер потока : 349 Мбайт (3%)
Заголовок : DUB | iTunes
Язык : Russian
Default : Да
Forced : Да
Аудио #2
Идентификатор : 3
Формат : AC-3
Формат/Информация : Audio Coding 3
Расширение режима : CM (complete main)
Параметр Endianness формата : Big
Идентификатор кодека : A_AC3
Продолжительность : 2 ч. 7 м.
Вид битрейта : Постоянный
Битрейт : 640 Кбит/сек
Каналы : 6 каналов
Расположение каналов : Front: L C R, Side: L R, LFE
Частота : 48,0 КГц
Частота кадров : 31,250 кадров/сек (1536 spf)
Битовая глубина : 16 бит
Метод сжатия : С потерями
Размер потока : 582 Мбайт (4%)
Заголовок : Киреев
Язык : Russian
Default : Нет
Forced : Нет
Аудио #3
Идентификатор : 4
Формат : AC-3
Формат/Информация : Audio Coding 3
Расширение режима : CM (complete main)
Параметр Endianness формата : Big
Идентификатор кодека : A_AC3
Продолжительность : 2 ч. 7 м.
Вид битрейта : Постоянный
Битрейт : 384 Кбит/сек
Каналы : 6 каналов
Расположение каналов : Front: L C R, Side: L R, LFE
Частота : 48,0 КГц
Частота кадров : 31,250 кадров/сек (1536 spf)
Битовая глубина : 16 бит
Метод сжатия : С потерями
Размер потока : 349 Мбайт (3%)
Заголовок : iTunes
Язык : Ukrainian
Default : Нет
Forced : Нет
Аудио #4
Идентификатор : 5
Формат : AC-3
Формат/Информация : Audio Coding 3
Расширение режима : CM (complete main)
Параметр Endianness формата : Big
Идентификатор кодека : A_AC3
Продолжительность : 2 ч. 7 м.
Вид битрейта : Постоянный
Битрейт : 640 Кбит/сек
Каналы : 6 каналов
Расположение каналов : Front: L C R, Side: L R, LFE
Частота : 48,0 КГц
Частота кадров : 31,250 кадров/сек (1536 spf)
Битовая глубина : 16 бит
Метод сжатия : С потерями
Размер потока : 582 Мбайт (4%)
Язык : English
Default : Нет
Forced : Нет
Текст
Идентификатор : 6
Формат : UTF-8
Идентификатор кодека : S_TEXT/UTF8
Идентификатор кодека/Информация : UTF-8 Plain Text
Заголовок : Full
Язык : English
Default : Нет
Forced : Нет
Меню
00:00:00.000 : en:Chapter 01
00:09:01.666 : en:Chapter 02
00:17:00.686 : en:Chapter 03
00:24:48.653 : en:Chapter 04
00:28:36.881 : en:Chapter 05
00:35:12.193 : en:Chapter 06
00:42:31.340 : en:Chapter 07
00:51:42.724 : en:Chapter 08
00:57:40.832 : en:Chapter 09
01:02:47.805 : en:Chapter 10
01:07:41.474 : en:Chapter 11
01:17:04.661 : en:Chapter 12
01:24:18.553 : en:Chapter 13
01:31:43.831 : en:Chapter 14
01:40:58.969 : en:Chapter 15
01:47:44.249 : en:Chapter 16
01:52:50.221 : en:Chapter 17
01:58:14.128 : en:Chapter 18
02:07:08.370 : en:Chapter 19
Скриншоты:
       

[Цитировать]

Топик был перенесен из форума Новинки кинопроката (HD Video) в форум Зарубежное кино (HD Video)
Scorpio



Показать сообщения:    

Текущее время: 09-Май 06:46

Часовой пояс: UTC + 6


Вы не можете начинать темы
Вы не можете отвечать на сообщения
Вы не можете редактировать свои сообщения
Вы не можете удалять свои сообщения
Вы не можете голосовать в опросах
Вы не можете прикреплять файлы к сообщениям
Вы не можете скачивать файлы

!ВНИМАНИЕ!
Сайт не предоставляет электронные версии произведений, а занимается лишь коллекционированием и каталогизацией ссылок, присылаемых и публикуемых на форуме нашими читателями. Если вы являетесь правообладателем какого-либо представленного материала и не желаете, чтобы ссылка на него находилась в нашем каталоге, свяжитесь с нами, и мы незамедлительно удалим ее. Файлы для обмена на трекере предоставлены пользователями сайта, и администрация не несет ответственности за их содержание. Просьба не заливать файлы, защищенные авторскими правами, а также файлы нелегального содержания!