***Уважаемые пользователи и гости !!! Сайт переехал на новый домен Torrents-club.info. Просьба изменить ваши закладки! ***
 
[ Сегодня идет свободное скачивание без начисления Download ]


Статистика раздачи
Нет
 
   
 
 
 
 
Послезавтра / The Day After Tomorrow Информация о фильме
Название: Послезавтра
Оригинальное название: The Day After Tomorrow
Год выхода: 2004
Жанр: Фантастика, катастрофа
Режиссер: Роланд Эммерих
В ролях: Дэннис Куэйд, Джейк Джилленхол, Эмми Россум, Дэш Майок, Джей О. Сэндерс, Села Уорд, Иэн Холм, Кеннет Уэлш, Гленн Пламмер, Адриан Лестер
О фильме:
Земля уверенно движется навстречу глобальной экологической катастрофе: в одной части света все живое погибает от засухи, в другой - разбушевавшаяся водная стихия сносит города.Близость катастрофы вынуждает ученого-климатолога, пытающегося найти способ остановить глобальное потепление, отправиться на поиски пропавшего сына в Нью-Йорк, в котором наступил новый ледниковый период…

Страна: США
Студия: Twentieth Century-Fox
Продолжительность: 02:03:41
Перевод: Дубляж (Blu-Ray CEE)
Файл
Кодек: H.265/HEVC
Качество: BDRip HEVC 1080p
Видео: 1920x816 px, 3 784 kb/s, 23.976 fps
Звук: Русский DTS, 768 kbps, 5.1 ch
Семпл

Скриншоты

Mediainfo

General
Unique ID : 245330515235363618001520677508909226081 (0xB890F0453B01F74B8E73881DA1B5D861)
Complete name : Day After Tomorrow (2004) 1080p HEVC.mkv
Format : Matroska
Format version : Version 2
File size : 4.01 GiB
Duration : 2 h 3 min
Overall bit rate : 4 644 kb/s
Encoded date : UTC 2017-01-31 17:24:33
Writing application : mkvmerge v9.8.0 ('Kuglblids') 64bit
Writing library : libebml v1.3.4 + libmatroska v1.4.5
Video
ID : 1
Format : HEVC
Format/Info : High Efficiency Video Coding
Format profile : Main 10@L4.1@High
Codec ID : V_MPEGH/ISO/HEVC
Duration : 2 h 3 min
Bit rate : 3 784 kb/s
Width : 1 920 pixels
Height : 816 pixels
Display aspect ratio : 2.35:1
Frame rate mode : Constant
Frame rate : 23.976 (24000/1001) FPS
Color space : YUV
Chroma subsampling : 4:2:0
Bit depth : 10 bits
Bits/(Pixel*Frame) : 0.101
Stream size : 3.27 GiB (81%)
Writing library : x265 2.2+22-20217c8af8ac:[Windows][GCC 6.2.0][64 bit] 10bit
Encoding settings : cpuid=1050111 / frame-threads=3 / numa-pools=8 / wpp / no-pmode / no-pme / no-psnr / no-ssim / log-level=2 / input-csp=1 / input-res=1920x816 / interlace=0 / total-frames=0 / level-idc=41 / high-tier=1 / uhd-bd=0 / ref=1 / no-allow-non-conformance / no-repeat-headers / annexb / no-aud / no-hrd / info / hash=0 / no-temporal-layers / open-gop / min-keyint=24 / keyint=240 / bframes=4 / b-adapt=2 / b-pyramid / bframe-bias=0 / rc-lookahead=40 / lookahead-slices=0 / scenecut=40 / no-intra-refresh / ctu=32 / min-cu-size=8 / no-rect / no-amp / max-tu-size=16 / tu-inter-depth=1 / tu-intra-depth=1 / limit-tu=0 / rdoq-level=2 / signhide / no-tskip / nr-intra=0 / nr-inter=0 / no-constrained-intra / no-strong-intra-smoothing / max-merge=2 / limit-refs=0 / no-limit-modes / me=3 / subme=7 / merange=25 / temporal-mvp / weightp / weightb / no-analyze-src-pics / no-deblock / no-sao / no-sao-non-deblock / rd=3 / no-early-skip / no-rskip / no-fast-intra / no-tskip-fast / no-cu-lossless / no-b-intra / rdpenalty=0 / psy-rd=2.00 / psy-rdoq=5.00 / no-rd-refine / analysis-mode=0 / no-lossless / cbqpoffs=0 / crqpoffs=0 / rc=crf / crf=24.0 / qcomp=0.80 / qpstep=1 / stats-write=0 / stats-read=0 / vbv-maxrate=50000 / vbv-bufsize=50000 / vbv-init=0.9 / crf-max=0.0 / crf-min=0.0 / ipratio=1.10 / pbratio=1.10 / aq-mode=3 / aq-strength=0.50 / no-cutree / zone-count=0 / no-strict-cbr / qg-size=16 / no-rc-grain / qpmax=51 / qpmin=0 / sar=1 / overscan=0 / videoformat=5 / range=0 / colorprim=1 / transfer=1 / colormatrix=1 / chromaloc=0 / display-window=0 / max-cll=0,0 / min-luma=0 / max-luma=1023 / log2-max-poc-lsb=8 / vui-timing-info / vui-hrd-info / slices=1 / opt-qp-pps / opt-ref-list-length-pps / no-multi-pass-opt-rps / scenecut-bias=0.05 / no-opt-cu-delta-qp / no-aq-motion
Default : Yes
Forced : No
Color range : Limited
Color primaries : BT.709
Transfer characteristics : BT.709
Matrix coefficients : BT.709
Audio
ID : 2
Format : DTS
Format/Info : Digital Theater Systems
Mode : 16
Format settings, Endianness : Big
Codec ID : A_DTS
Duration : 2 h 3 min
Bit rate mode : Constant
Bit rate : 768 kb/s
Channel(s) : 6 channels
Channel positions : Front: L C R, Side: L R, LFE
Sampling rate : 48.0 kHz
Frame rate : 93.750 FPS (512 spf)
Bit depth : 24 bits
Compression mode : Lossy
Stream size : 679 MiB (17%)
Language : Russian
Default : Yes
Forced : No
Menu
00:00:00.000 : :Chapter 1
00:03:07.562 : :Chapter 2
00:06:16.793 : :Chapter 3
00:09:17.182 : :Chapter 4
00:12:04.432 : :Chapter 5
00:15:42.733 : :Chapter 6
00:18:37.700 : :Chapter 7
00:20:46.662 : :Chapter 8
00:22:41.402 : :Chapter 9
00:24:13.327 : :Chapter 10
00:31:22.923 : :Chapter 11
00:38:26.304 : :Chapter 12
00:42:14.949 : :Chapter 13
00:48:08.010 : :Chapter 14
00:51:15.656 : :Chapter 15
00:54:13.417 : :Chapter 16
01:03:00.151 : :Chapter 17
01:06:22.353 : :Chapter 18
01:08:09.836 : :Chapter 19
01:11:26.616 : :Chapter 20
01:13:40.249 : :Chapter 21
01:17:46.996 : :Chapter 22
01:20:52.431 : :Chapter 23
01:24:08.001 : :Chapter 24
01:27:57.647 : :Chapter 25
01:29:35.871 : :Chapter 26
01:32:18.616 : :Chapter 27
01:38:42.959 : :Chapter 28
01:41:34.463 : :Chapter 29
01:46:57.912 : :Chapter 30
01:50:41.677 : :Chapter 31
01:55:38.598 : :Chapter 32

[Цитировать]



Показать сообщения:    

Текущее время: 19-Июн 05:45

Часовой пояс: UTC + 6


Вы не можете начинать темы
Вы не можете отвечать на сообщения
Вы не можете редактировать свои сообщения
Вы не можете удалять свои сообщения
Вы не можете голосовать в опросах
Вы не можете прикреплять файлы к сообщениям
Вы не можете скачивать файлы

!ВНИМАНИЕ!
Сайт не предоставляет электронные версии произведений, а занимается лишь коллекционированием и каталогизацией ссылок, присылаемых и публикуемых на форуме нашими читателями. Если вы являетесь правообладателем какого-либо представленного материала и не желаете, чтобы ссылка на него находилась в нашем каталоге, свяжитесь с нами, и мы незамедлительно удалим ее. Файлы для обмена на трекере предоставлены пользователями сайта, и администрация не несет ответственности за их содержание. Просьба не заливать файлы, защищенные авторскими правами, а также файлы нелегального содержания!