***Уважаемые пользователи и гости !!! Сайт переехал на новый домен Torrents-club.info. Просьба изменить ваши закладки! ***
 
[ Сегодня идет свободное скачивание без начисления Download ]


Статистика раздачи
Нет
 
   
 
 
 
 
Полной грудью / Breathe In Информация о фильме
Название: Полной грудью
Оригинальное название: Breathe In
Жанр: драма, мелодрама
Год выпуска: 2013
Режиссёр: Дрэйк Доремус
В ролях: Гай Пирс, Фелисити Джонс, Эми Райан, Кайл МакЛоклен, Александра Уэнтуорт
О фильме:
Когда иностранная студентка по обмену прибывает в маленький городок на севере штата Нью-Йорк, она навсегда меняет взаимоотношения в принявшей ее семье, а также жизни членов этой семьи.

Выпущено: США
Продолжительность: 01:37:14
Озвучивание: Профессиональный, многоголосый закадровый (ARSPRO)
Файл
Формат: AVI
Качество: HDRip
Видео: XviD 73, ~1720 Кбит/с, 720x304, 23.976 Кадр/с
Аудио: AC3 / 5.1 / 48 kHz / 384 kbps
Субтитры: Нет

M/I

General
Complete name : F:Полной грудью.(2013).HDRip.[-=DoMiNo=-].avi
Format : AVI
Format/Info : Audio Video Interleave
File size : 1.44 GiB
Duration : 1 h 37 min
Overall bit rate : 2 113 kb/s
Writing library : VirtualDub build 35491/release
Video
ID : 0
Format : MPEG-4 Visual
Format profile : Advanced Simple@L5
Format settings, BVOP : 1
Format settings, QPel : No
Format settings, GMC : No warppoints
Format settings, Matrix : Custom
Codec ID : XVID
Codec ID/Hint : XviD
Duration : 1 h 37 min
Bit rate : 1 720 kb/s
Width : 720 pixels
Height : 304 pixels
Display aspect ratio : 2.35:1
Frame rate : 23.976 (24000/1001) FPS
Color space : YUV
Chroma subsampling : 4:2:0
Bit depth : 8 bits
Scan type : Progressive
Compression mode : Lossy
Bits/(Pixel*Frame) : 0.328
Stream size : 1.17 GiB (81%)
Writing library : XviD 73
Audio
ID : 1
Format : AC-3
Format/Info : Audio Coding 3
Mode extension : CM (complete main)
Format settings, Endianness : Big
Codec ID : 2000
Duration : 1 h 37 min
Bit rate mode : Constant
Bit rate : 384 kb/s
Channel(s) : 6 channels
Channel positions : Front: L C R, Side: L R, LFE
Sampling rate : 48.0 kHz
Frame rate : 31.250 FPS (1536 spf)
Bit depth : 16 bits
Compression mode : Lossy
Stream size : 267 MiB (18%)
Alignment : Aligned on interleaves
Interleave, duration : 42 ms (1.00 video frame)
Interleave, preload duratio : 512 ms

Скриншоты

[Цитировать]



Показать сообщения:    

Текущее время: 06-Май 13:19

Часовой пояс: UTC + 6


Вы не можете начинать темы
Вы не можете отвечать на сообщения
Вы не можете редактировать свои сообщения
Вы не можете удалять свои сообщения
Вы не можете голосовать в опросах
Вы не можете прикреплять файлы к сообщениям
Вы не можете скачивать файлы

!ВНИМАНИЕ!
Сайт не предоставляет электронные версии произведений, а занимается лишь коллекционированием и каталогизацией ссылок, присылаемых и публикуемых на форуме нашими читателями. Если вы являетесь правообладателем какого-либо представленного материала и не желаете, чтобы ссылка на него находилась в нашем каталоге, свяжитесь с нами, и мы незамедлительно удалим ее. Файлы для обмена на трекере предоставлены пользователями сайта, и администрация не несет ответственности за их содержание. Просьба не заливать файлы, защищенные авторскими правами, а также файлы нелегального содержания!