***Уважаемые пользователи и гости !!! Сайт переехал на новый домен Torrents-club.info. Просьба изменить ваши закладки! ***
 
[ Сегодня идет свободное скачивание без начисления Download ]


Статистика раздачи
Нет
 
   
 
 
 
 
На белом коне (2016) WEB-DLRip [H.264/720p-LQ] (серии 1-4 из 4)- Производство: Россия / Группа компаний "Гамма"
Жанр: комедия
Режиссер: Борис Рабей
Актеры: Максим Емельянов, Анастасия Евграфова, Алексей Демидов, Вера Шпак, Роман Полянский, Максим Амельченко, Александр Пашутин, Олег Филипчик, Елена Валюшкина, Игорь Скурихин, Игорь Ветров, Виктория Герасимова, Игорь Гузун, Галина Анисимова, Владимир Воробьёв, Светлана Брыксина, Никита Косточко, Иван Федотов, Владимир Малков, Алексей Штукин, Дима Полунин, Юрий Павлов и др.
Описание:
Это история о современной Москве — прекрасном городе, одним из символов которого сегодня стала конная полиция. Главный герой, следуя совету деда, принимает решение пройти все необходимые испытания и получить гордое имя кавалериста. Пересев на коня, он хочет покорить сердце девушки. Однако новая профессия становится для него чем-то большим.

Возраст: 12+ (зрителям, достигшим 12 лет)
Продолжительность: ~00:45:00 серия
Качество видео: WEB-DLRip
Видео: AVC/H.264, 1280х720 (16:9), ~1800 kbps
Аудио: AC3, 2 ch, 192 Kbps, CBR

MediaInfo:

General
Unique ID : 214019534134056964483127504740060898848 (0xA102A9B6E95ADAF28809028DFEAE2620)
Complete name : F:\DOWNLOADS\На белом коне (2016) WEB-DLRip 720p\На белом коне - 01 серия.mkv
Format : Matroska
Format version : Version 2
File size : 648 MiB
Duration : 45 min 20 s
Overall bit rate mode : Variable
Overall bit rate : 1 999 kb/s
Encoded date : UTC 2017-01-31 18:08:55
Writing application : mkvmerge v7.8.0 ('River Man') 32bit built on Apr 3 2015 12:11:22
Writing library : libebml v1.3.1 + libmatroska v1.4.2
Video
ID : 1
Format : AVC
Format/Info : Advanced Video Codec
Format profile : High@L4.1
Format settings, CABAC : Yes
Format settings, ReFrames : 3 frames
Format settings, GOP : N=1
Codec ID : V_MPEG4/ISO/AVC
Duration : 45 min 20 s
Bit rate mode : Variable
Bit rate : 1 800 kb/s
Maximum bit rate : 40.0 Mb/s
Width : 1 280 pixels
Height : 720 pixels
Display aspect ratio : 16:9
Frame rate mode : Constant
Frame rate : 25.000 FPS
Color space : YUV
Chroma subsampling : 4:2:0
Bit depth : 8 bits
Scan type : Progressive
Bits/(Pixel*Frame) : 0.078
Stream size : 573 MiB (88%)
Writing library : x264 core 142 r2389 956c8d8
Encoding settings : cabac=1 / ref=3 / deblock=1:0:0 / analyse=0x3:0x133 / me=umh / subme=7 / psy=1 / psy_rd=1.00:0.00 / mixed_ref=1 / me_range=32 / chroma_me=1 / trellis=2 / 8x8dct=1 / cqm=0 / deadzone=21,11 / fast_pskip=1 / chroma_qp_offset=-2 / threads=12 / lookahead_threads=2 / sliced_threads=0 / nr=0 / decimate=1 / interlaced=0 / bluray_compat=0 / constrained_intra=0 / bframes=0 / weightp=0 / keyint=75 / keyint_min=26 / scenecut=40 / intra_refresh=0 / rc_lookahead=50 / rc=2pass / mbtree=0 / bitrate=1800 / ratetol=1.0 / qcomp=0.20 / qpmin=10 / qpmax=51 / qpstep=4 / cplxblur=20.0 / qblur=0.5 / vbv_maxrate=2000 / vbv_bufsize=2000 / nal_hrd=none / filler=0 / ip_ratio=1.40 / aq=1:1.0
Default : Yes
Forced : No
Color range : Limited
Color primaries : BT.709
Transfer characteristics : BT.709
Matrix coefficients : BT.709
Audio
ID : 2
Format : AC-3
Format/Info : Audio Coding 3
Mode extension : CM (complete main)
Format settings, Endianness : Big
Codec ID : A_AC3
Duration : 45 min 20 s
Bit rate mode : Constant
Bit rate : 192 kb/s
Channel(s) : 2 channels
Channel positions : Front: L R
Sampling rate : 44.1 kHz
Frame rate : 28.711 FPS (1536 spf)
Bit depth : 16 bits
Compression mode : Lossy
Stream size : 62.3 MiB (10%)
Default : Yes
Forced : No
Скриншоты:
[

[Цитировать]

Топик был перенесен из форума Новинки отечественных сериалов HD в форум Отечественные сериалы HD
Dimasik79



Показать сообщения:    

Текущее время: 07-Май 13:56

Часовой пояс: UTC + 6


Вы не можете начинать темы
Вы не можете отвечать на сообщения
Вы не можете редактировать свои сообщения
Вы не можете удалять свои сообщения
Вы не можете голосовать в опросах
Вы не можете прикреплять файлы к сообщениям
Вы не можете скачивать файлы

!ВНИМАНИЕ!
Сайт не предоставляет электронные версии произведений, а занимается лишь коллекционированием и каталогизацией ссылок, присылаемых и публикуемых на форуме нашими читателями. Если вы являетесь правообладателем какого-либо представленного материала и не желаете, чтобы ссылка на него находилась в нашем каталоге, свяжитесь с нами, и мы незамедлительно удалим ее. Файлы для обмена на трекере предоставлены пользователями сайта, и администрация не несет ответственности за их содержание. Просьба не заливать файлы, защищенные авторскими правами, а также файлы нелегального содержания!