***Уважаемые пользователи и гости !!! Сайт переехал на новый домен Torrents-club.info. Просьба изменить ваши закладки! ***
 
[ Сегодня идет свободное скачивание без начисления Download ]


Статистика раздачи
Нет
 
   
 
 
 
 
Салем /Salem
«Witch Among Us»
Жанр: мистика, фантастика, триллер, драма
Страна: США, Tribune Studios, Twentieth Century Fox Television
Год выпуска: 2016
Режиссер: Ричард Шепард
В ролях: Шэйн Уэст, Джанет Монтгомери, Эжур Дэун, Моргана Шоу, Дайан Салинджер, Сет Гейбл, Ксандер Беркли, Эшли Мадекве, Элиз Эберли, Джон Артур .

Сюжет фильма: Дьявол явился на землю, и Салем, страдающий от наплыва беженцев, которые спасаются от индейцев и французов, судя по всему, обречён погибнуть, став местом коронации Тёмного владыки. Но у эссекских ведьм, недовольных тем, что Отец лжи не сдержал своё обещание, есть своё мнение на этот счёт.
Личная оценка: 10
Продолжительность: 10 х ~ 00:52:00
Качество видео: WEB-DLRip
Формат: AVI
Перевод: Профессиональный (многоголосый, закадровый) (AlexFilm)
Субтитры: Нет
Реклама: Присутствует реклама спонсоров перевода
Видео: кодек: MPEG-4 Visual, размер кадра: 720 x 400, 23.976 битрейт: ~1 700 кб/с
Аудио#1: язык: Русский, перевод: P MVO(AlexFilm), кодек: AC3, 2 ch, битрейт: 192 кб/с
Аудио#2: язык: Английский, перевод: Оригинал, кодек: AC3, 2 ch, битрейт: 192 кб/с

Информация по видеофайлу

Complete name                            : F:\Сериалы\Salem.s3.(AlexFilm).WEB-DLRip[MGT.kz]\Salem.s03e01.WEB-DLRip.Rus.Eng.AlexFilm.avi
Format                                   : AVI
Format/Info                              : Audio Video Interleave
File size                                : 579 MiB
Duration                                 : 48mn 21s
Overall bit rate                         : 1 672 Kbps
Movie name                               : Salem 3x01 @ AlexFilm
Writing application                      : VirtualDubMod 1.5.10.2 (build 2540/release)
Writing library                          : VirtualDubMod build 2540/release
Video
ID                                       : 0
Format                                   : MPEG-4 Visual
Format profile                           : Advanced Simple@L5
Format settings, BVOP                    : No
Format settings, QPel                    : No
Format settings, GMC                     : No warppoints
Format settings, Matrix                  : Default (MPEG)
Codec ID                                 : XVID
Codec ID/Hint                            : XviD
Duration                                 : 48mn 21s
Bit rate                                 : 1 403 Kbps
Width                                    : 720 pixels
Height                                   : 400 pixels
Display aspect ratio                     : 16:9
Frame rate                               : 23.976 fps
Color space                              : YUV
Chroma subsampling                       : 4:2:0
Bit depth                                : 8 bits
Scan type                                : Progressive
Compression mode                         : Lossy
Bits/(Pixel*Frame)                       : 0.203
Stream size                              : 485 MiB (84%)
Writing library                          : XviD 73
Audio #1
ID                                       : 1
Format                                   : MPEG Audio
Format version                           : Version 1
Format profile                           : Layer 3
Mode                                     : Joint stereo
Mode extension                           : MS Stereo
Codec ID                                 : 55
Codec ID/Hint                            : MP3
Duration                                 : 48mn 21s
Bit rate mode                            : Constant
Bit rate                                 : 128 Kbps
Channel(s)                               : 2 channels
Sampling rate                            : 48.0 KHz
Compression mode                         : Lossy
Stream size                              : 44.3 MiB (8%)
Alignment                                : Aligned on interleaves
Interleave, duration                     : 42 ms (1.00 video frame)
Interleave, preload duration             : 504 ms
Title                                    : Russian (AlexFilm)
Writing library                          : LAME3.99r
Encoding settings                        : -m j -V 4 -q 3 -lowpass 18 -b 128
Audio #2
ID                                       : 2
Format                                   : MPEG Audio
Format version                           : Version 1
Format profile                           : Layer 3
Mode                                     : Joint stereo
Mode extension                           : MS Stereo
Codec ID                                 : 55
Codec ID/Hint                            : MP3
Duration                                 : 48mn 21s
Bit rate mode                            : Constant
Bit rate                                 : 128 Kbps
Channel(s)                               : 2 channels
Sampling rate                            : 48.0 KHz
Compression mode                         : Lossy
Stream size                              : 44.3 MiB (8%)
Alignment                                : Aligned on interleaves
Interleave, duration                     : 42 ms (1.00 video frame)
Interleave, preload duration             : 504 ms
Title                                    : English
Writing library                          : LAME3.90.3


Последний раз редактировалось: D-r Woland_kz (2017-02-06 09:57), всего редактировалось 2 раз(а)

[Цитировать]

D-r Woland_kz,тебя с первым релизом на новом месте!!!Да и с таким очешуенным сериалом!
Очень жаль,что последний сезон!Всем приятного просмотра!Не пожалеете! :105: :105: :105:

[Цитировать]

Присоединяюсь к Metallica1979,,, поздравляю
D-r Woland_kz, шаблонов не нашел, взял за основу твой релиз,,, залил викингов

[Цитировать]



Показать сообщения:    

Текущее время: 06-Май 13:08

Часовой пояс: UTC + 6


Вы не можете начинать темы
Вы не можете отвечать на сообщения
Вы не можете редактировать свои сообщения
Вы не можете удалять свои сообщения
Вы не можете голосовать в опросах
Вы не можете прикреплять файлы к сообщениям
Вы не можете скачивать файлы

!ВНИМАНИЕ!
Сайт не предоставляет электронные версии произведений, а занимается лишь коллекционированием и каталогизацией ссылок, присылаемых и публикуемых на форуме нашими читателями. Если вы являетесь правообладателем какого-либо представленного материала и не желаете, чтобы ссылка на него находилась в нашем каталоге, свяжитесь с нами, и мы незамедлительно удалим ее. Файлы для обмена на трекере предоставлены пользователями сайта, и администрация не несет ответственности за их содержание. Просьба не заливать файлы, защищенные авторскими правами, а также файлы нелегального содержания!