***Уважаемые пользователи и гости !!! Сайт переехал на новый домен Torrents-club.info. Просьба изменить ваши закладки! ***
 
[ Сегодня идет свободное скачивание без начисления Download ]


Статистика раздачи
Нет
 
   
 
 
 
 
Красота по-американски / American Beauty (1999) BDRip 1080p Информация о фильме
Название: Красота по-американски
Оригинальное название: American Beauty
Год выхода: 1999
Жанр: драма
Режиссер: Сэм Мендес
В ролях: Кевин Спейси, Аннетт Бенинг, Тора Бёрч, Уэс Бентли, Мена Сувари, Крис Купер, Питер Галлахер, Эллисон Дженни, Скотт Бакула, Сэм Робардс
О фильме: Лестер Бернэм переживает кризис среднего возраста. Его не уважают и не ценят на работе, а от счастливой семьи осталась лишь видимость. У жены Кэролайн страстный роман с коллегой по работе, а угрюмая дочь-подросток Джейн увлечена соседским парнем, побывавшим в психиатрической больнице.
Терзаемый душевными муками, Лестер впадает в глубокую депрессию. Но неожиданно для себя влюбляется в одноклассницу дочери Анджелу. Эта пылкая страсть дает Лестеру мощный жизненный импульс. Он ощущает прилив сил и желаний и готов снова радоваться красоте.

Выпущено: DreamWorks SKG
Продолжительность: 02:01:40
Перевод: Двухголосый закадровый (лицензия) + Авторский (А.Гаврилов)
Файл
Кодек: x264
Качество: BDRip (источник: Blu-ray Disc)
Видео: 1920x818 (2,35:1), 23.976 fps, 10.1 Mbps
Аудио #1: AC-3, 6 ch, 640 kbps (Двухголосый закадровый, Премьер Мультимедиа)
Аудио #2: AC-3, 6 ch, 640 kbps (Одноголосый закадровый, А.Гаврилов)
Аудио #3: AC-3, 6 ch, 640 kbps (Original)
Субтитры: Русские, Английские
Скачать: сэмпл

MI

Общее
Уникальный идентификатор : 231071797861562510664668245959982290871 (0xADD6CF3A1D28AAFE9D0AD057A37597B7)
Полное имя : American.Beauty.1999.BDRip.1080p.Rus.Eng.mkv
Формат : Matroska
Версия формата : Version 2
Размер файла : 10,2 Гбайт
Продолжительность : 2 ч. 1 м.
Общий поток : 12,0 Мбит/сек
Название фильма : Красота по-американски / American Beauty (1999)
Дата кодирования : UTC 2013-06-24 06:04:57
Программа кодирования : mkvmerge v5.8.0 ('No Sleep / Pillow') built on Sep 2 2012 15:37:04
Библиотека кодирования : libebml v1.2.3 + libmatroska v1.3.0
Видео
Идентификатор : 1
Формат : AVC
Формат/Информация : Advanced Video Codec
Профиль формата : High@L4.1
Параметр CABAC формата : Да
Параметр ReFrames формата : 5 кадров
Идентификатор кодека : V_MPEG4/ISO/AVC
Продолжительность : 2 ч. 1 м.
Битрейт : 10,1 Мбит/сек
Ширина : 1920 пикселей
Высота : 818 пикселей
Соотношение сторон : 2,35:1
Частота кадров : 23,976 кадра/сек
Цветовое пространство : YUV
Субдискретизация насыщенности : 4:2:0
Битовая глубина : 8 бит
Тип развёртки : Прогрессивная
Бит/(Пиксели*Кадры) : 0.268
Размер потока : 8,38 Гбайт (82%)
Заголовок : Release by AlexKa
Библиотека кодирования : x264 core 133 r2334 a3ac64b
Настройки программы : cabac=1 / ref=5 / deblock=1:-3:-3 / analyse=0x3:0x133 / me=umh / subme=11 / psy=1 / psy_rd=1.00:0.00 / mixed_ref=1 / me_range=32 / chroma_me=1 / trellis=2 / 8x8dct=1 / cqm=0 / deadzone=21,11 / fast_pskip=0 / chroma_qp_offset=-2 / threads=12 / lookahead_threads=2 / sliced_threads=0 / nr=0 / decimate=1 / interlaced=0 / bluray_compat=0 / constrained_intra=0 / bframes=9 / b_pyramid=2 / b_adapt=2 / b_bias=0 / direct=3 / weightb=1 / open_gop=0 / weightp=2 / keyint=240 / keyint_min=23 / scenecut=40 / intra_refresh=0 / rc=2pass / mbtree=0 / bitrate=10096 / ratetol=1.0 / qcomp=0.60 / qpmin=0 / qpmax=69 / qpstep=4 / cplxblur=20.0 / qblur=0.5 / ip_ratio=1.40 / pb_ratio=1.30 / aq=1:0.90
Язык : English
Аудио #1
Идентификатор : 2
Формат : AC-3
Формат/Информация : Audio Coding 3
Расширение режима : CM (complete main)
Идентификатор кодека : A_AC3
Продолжительность : 2 ч. 1 м.
Вид битрейта : Постоянный
Битрейт : 640 Кбит/сек
Каналы : 6 каналов
Расположение каналов : Front: L C R, Side: L R, LFE
Частота : 48,0 КГц
Битовая глубина : 16 бит
Метод сжатия : С потерями
Размер потока : 557 Мбайт (5%)
Заголовок : Двухголосый закадровый, Премьер Мультимедиа
Язык : Russian
Аудио #2
Идентификатор : 3
Формат : AC-3
Формат/Информация : Audio Coding 3
Расширение режима : CM (complete main)
Идентификатор кодека : A_AC3
Продолжительность : 2 ч. 1 м.
Вид битрейта : Постоянный
Битрейт : 640 Кбит/сек
Каналы : 6 каналов
Расположение каналов : Front: L C R, Side: L R, LFE
Частота : 48,0 КГц
Битовая глубина : 16 бит
Метод сжатия : С потерями
Размер потока : 557 Мбайт (5%)
Заголовок : Одноголосый закадровый, А.Гаврилов
Язык : Russian
Аудио #3
Идентификатор : 4
Формат : AC-3
Формат/Информация : Audio Coding 3
Расширение режима : CM (complete main)
Идентификатор кодека : A_AC3
Продолжительность : 2 ч. 1 м.
Вид битрейта : Постоянный
Битрейт : 640 Кбит/сек
Каналы : 6 каналов
Расположение каналов : Front: L C R, Side: L R, LFE
Частота : 48,0 КГц
Битовая глубина : 16 бит
Метод сжатия : С потерями
Размер потока : 557 Мбайт (5%)
Заголовок : Original
Язык : English
Текст #1
Идентификатор : 5
Формат : UTF-8
Идентификатор кодека : S_TEXT/UTF8
Идентификатор кодека/Информация : UTF-8 Plain Text
Заголовок : Rus
Язык : Russian
Текст #2
Идентификатор : 6
Формат : UTF-8
Идентификатор кодека : S_TEXT/UTF8
Идентификатор кодека/Информация : UTF-8 Plain Text
Заголовок : Eng
Язык : English
Меню
00:00:00.000 : en:01. The High Point of My Day (Main Title)
00:04:25.724 : en:02. Job Deion
00:10:20.078 : en:03. I Will Sell This House Today
00:13:52.790 : en:04. The Gym
00:19:05.603 : en:05. Spectacular
00:23:52.097 : en:06. Welcome to the Neighborhood
00:26:28.712 : en:07. I'm Just Curious
00:30:01.383 : en:08. My Personal Hero
00:35:51.399 : en:09. I Love Root Beer
00:39:53.600 : en:10. America's Weirdest Home Videos
00:42:31.466 : en:11. Choking the Bishop
00:46:11.936 : en:12. I Want to Look Good Naked
00:50:05.920 : en:13. Mom's Mad
00:51:25.708 : en:14. An Ordinary Guy With Nothing to Lose
00:55:31.370 : en:15. The Royal Treatment
00:59:50.212 : en:16. The Most Beautiful Thing
01:05:03.608 : en:17. Pass the Asparagus
01:09:17.737 : en:18. Don't Give up on Me Dad
01:13:29.614 : en:19. Mr. Smarty Man
01:17:49.748 : en:20. Massive Psychological Damage
01:23:23.707 : en:21. The Day You Die
01:26:54.876 : en:22. Smile, You're at Mr. Smiley's
01:32:41.306 : en:23. You Like Muscles?
01:38:44.001 : en:24. Our Marriage is Just for Show
01:42:28.851 : en:25. You Couldn't Be Ordinary if You Tried
01:48:47.187 : en:26. I'm Great
01:51:51.914 : en:27. My Stupid Little Life
01:55:58.952 : en:28. End Credits

x264

x264 [info]: frame I:1049 Avg QP:17.85 size:196847
x264 [info]: frame P:30544 Avg QP:20.01 size: 85669
x264 [info]: frame B:143430 Avg QP:22.20 size: 44551
x264 [info]: consecutive B-frames: 0.9% 0.5% 2.3% 5.0% 10.2% 64.3% 8.3% 3.3% 2.9% 2.4%
Скриншоты

[Цитировать]



Показать сообщения:    

Текущее время: 07-Май 13:43

Часовой пояс: UTC + 6


Вы не можете начинать темы
Вы не можете отвечать на сообщения
Вы не можете редактировать свои сообщения
Вы не можете удалять свои сообщения
Вы не можете голосовать в опросах
Вы не можете прикреплять файлы к сообщениям
Вы не можете скачивать файлы

!ВНИМАНИЕ!
Сайт не предоставляет электронные версии произведений, а занимается лишь коллекционированием и каталогизацией ссылок, присылаемых и публикуемых на форуме нашими читателями. Если вы являетесь правообладателем какого-либо представленного материала и не желаете, чтобы ссылка на него находилась в нашем каталоге, свяжитесь с нами, и мы незамедлительно удалим ее. Файлы для обмена на трекере предоставлены пользователями сайта, и администрация не несет ответственности за их содержание. Просьба не заливать файлы, защищенные авторскими правами, а также файлы нелегального содержания!