***Уважаемые пользователи и гости !!! Сайт переехал на новый домен Torrents-club.info. Просьба изменить ваши закладки! ***
 
[ Сегодня идет свободное скачивание без начисления Download ]


Статистика раздачи
Нет
 
   
 
 
 
 
Акулий торнадо 4: Пробуждение / Sharknado 4: The 4th Awakens (2016) HDRip - Производство: США | BondIt, Global Asylum, Syfy
Жанр: Ужасы, Фантастика
Режиссер: Энтони Ферранте
Актеры: Кэрри Киган, Тара Рид, Дэвид Хассельхофф, Райан Ньюман, Масьела Луша, Стейси Дэш, Стив Гуттенберг, Гэри Бьюзи, Александра Пол, Коди Линли ...
Описание:
С момента последних событий, когда всё Восточное побережье оказалось разорено сильнейшим торнадо, проходит 5 лет. Оставив шокирующие события в прошлом, Фин Шеперд и его семья смогли наконец вздохнуть свободно. Но опасность вновь настигает героев. Во время их отдыха в Лас-Вегасе тысячи разнообразных акул, поднятых в воздух мощными ураганными ветрами, обрушиваются на город.

Дата мировой премьеры: 31 июля 2016
Продолжительность: 01:25:26
Качество видео: HDRip
Перевод: Многоголосый закадровый, профессиональный (Синема УС)
Реклама: Присутствуют аудио и текстовые вставки рекламы
Видео: Xvid, 720x400, ~ 1833 kbps
Аудио: AC3, 2 ch, 448 kbps

Mediainfo:

Общее
Полное имя : D:\Загрузки uTorrent\Sharknado.The.4th.Awakens.2016.P.HDRip.14OOMB_KOSHARA.avi
Формат : AVI
Формат/Информация : Audio Video Interleave
Размер файла : 1,37 Гбайт
Продолжительность : 1 ч. 25 м.
Общий поток : 2290 Кбит/сек
Программа кодирования : VirtualDubMod 1.5.10.2 (build 2540/release)
Библиотека кодирования : VirtualDubMod build 2540/release
Видео
Идентификатор : 0
Формат : MPEG-4 Visual
Профиль формата : Advanced Simple@L5
Параметр BVOP формата : 2
Параметр QPel формата : Нет
Параметр GMC формата : Без точки перехода
Параметр матрицы формата : Default (MPEG)
Идентификатор кодека : XVID
Идентификатор кодека/Подсказка : XviD
Продолжительность : 1 ч. 25 м.
Битрейт : 1833 Кбит/сек
Ширина : 720 пикселей
Высота : 400 пикселей
Соотношение сторон : 16:9
Частота кадров : 23,976 (24000/1001) кадра/сек
Цветовое пространство : YUV
Субдискретизация насыщенности : 4:2:0
Битовая глубина : 8 бит
Тип развёртки : Прогрессивная
Метод сжатия : С потерями
Бит/(Пиксели*Кадры) : 0.265
Размер потока : 1,09 Гбайт (80%)
Библиотека кодирования : XviD 1.2.1 (UTC 2008-12-04)
Аудио
Идентификатор : 1
Формат : AC-3
Формат/Информация : Audio Coding 3
Расширение режима : CM (complete main)
Параметр Endianness формата : Big
Идентификатор кодека : 2000
Продолжительность : 1 ч. 25 м.
Вид битрейта : Постоянный
Битрейт : 448 Кбит/сек
Каналы : 2 канала
Расположение каналов : Front: L R
Частота : 48,0 КГц
Частота кадров : 31,250 кадров/сек (1536 spf)
Битовая глубина : 16 бит
Метод сжатия : С потерями
Размер потока : 274 Мбайт (20%)
Выравнивание : Разделение по промежуткам
Продолжительность промежутка : 42 мс. (1,00 видеокадр)
Время предзагрузки промежутка : 500 мс.
Скриншоты:

[Цитировать]

Топик был перенесен из форума Новинки кинопроката в форум Ужасы
Scorpio



Показать сообщения:    

Текущее время: 12-Май 02:00

Часовой пояс: UTC + 6


Вы не можете начинать темы
Вы не можете отвечать на сообщения
Вы не можете редактировать свои сообщения
Вы не можете удалять свои сообщения
Вы не можете голосовать в опросах
Вы не можете прикреплять файлы к сообщениям
Вы не можете скачивать файлы

!ВНИМАНИЕ!
Сайт не предоставляет электронные версии произведений, а занимается лишь коллекционированием и каталогизацией ссылок, присылаемых и публикуемых на форуме нашими читателями. Если вы являетесь правообладателем какого-либо представленного материала и не желаете, чтобы ссылка на него находилась в нашем каталоге, свяжитесь с нами, и мы незамедлительно удалим ее. Файлы для обмена на трекере предоставлены пользователями сайта, и администрация не несет ответственности за их содержание. Просьба не заливать файлы, защищенные авторскими правами, а также файлы нелегального содержания!