***Уважаемые пользователи и гости !!! Сайт переехал на новый домен Torrents-club.info. Просьба изменить ваши закладки! ***
 
[ Сегодня идет свободное скачивание без начисления Download ]


Статистика раздачи
Нет
 
   
 
 
 
 
Стукач / The Hit (1984) BDRip 1080p Информация о фильме
Название: Стукач
Оригинальное название: The Hit
Год выхода: 1984
Жанр: триллер, драма, криминал
Режиссер: Стивен Фрирз
В ролях: Джон Хёрт, Тим Рот, Лаура дель Соль, Фредди Стюарт, Ральф Браун, А.Дж. Кларк, Теренс Стэмп, Ленни Питерс, Берни Сирл, Брайан Ройал
О фильме:
Бандит Вилли Паркер ради своей свободы «сдал» подельщиков. И вот, спустя 10 лет, двое наемников: Брэддок и Майрон находят его в Испании. Но они еще должны доставить Паркера по назначению, когда везде уже объявлено о его похищении.

Страна: Великобритания
Студия: Central Productions Ltd., Recorded Picture Company (RPC), Zenith Entertainment
Продолжительность: 01:37:50
Перевод: Профессиональный (многоголосый, закадровый) Cinema Prestige + Авторский (одноголосый, закадровый) П.Карцев
Файл
Формат: Matroska
Качество: BDRip 1080p
Видео: 1920x1036 at 24.000 fps, x264@L4.1, ~12.5 Mb/s
Аудио#1: Russian: 48 kHz, AC3, 3/2 (L,C,R,l,r) + LFE ch, ~448 kbps |Многоголосый закадровый, Cinema Prestige|
Аудио#2: Russian: 48 kHz, AC3, 3/2 (L,C,R,l,r) + LFE ch, ~448 kbps |Авторский, П.Карцев|
Аудио#3: English: 48 kHz, AC3, 3/2 (L,C,R,l,r) + LFE ch, ~448 kbps
Субтитры: Russian, English

M/I

General
Unique ID : 227221011232604304928405454888971474022 (0xAAF12CC9B2F002C5A694B106CA171466)
Complete name : D:КИНОСтукач.(1984).BLU-RAY.1080p.[-=DoMiNo=-]..mkv
Format : Matroska
Format version : Version 4 / Version 2
File size : 9.46 GiB
Duration : 1 h 37 min
Overall bit rate : 13.8 Mb/s
Movie name : Стукач
Deion : Бандит Вилли Паркер ради своей свободы «сдал» подельщиков. И вот, спустя 10 лет, двое наемников: Брэддок и Майрон находят его в Испании. Но они еще должны доставить Паркера по назначению, когда везде уже объявлено о его похищении.
Writing application : XviD4PSP 7.0.349 DAILY
Writing library : Lavf57.41.100 / Lavf57.41.100
Attachments : poster.jpg
ACTORS : Джон Хёрт, Тим Рот, Лаура дель Соль, Фредди Стюарт, Ральф Браун, А.Дж. Кларк, Теренс Стэмп, Ленни Питерс, Берни Сирл, Брайан Ройал, Элби Вудингтон, Уиллоби Грей, Джим Бродбент, Мануэль Де Бенито, Хуан Калот, Энрике Сан Франсиско, Уилл Мор, Хосе Луис Фернандес «Пирри», Камило Виланова, Фернандо Рей, Карлос Лусена, Билл Хантер, Мигель Гармендия, Карлос Сабала, Eneko Olazagasti, Пачи Барко, Ксавьер Агирр, Карлос Тристанчо
COMPOSER : Пако де Лусия
COUNTRY : Великобритания
DATE : 1984
DIRECTOR : Стивен Фрирз
ENCODING_INFO : BluRay > MKV 1080p / VC1 > X264 VBR-2P 12500kbps Произвольный / DTS-HD MA > AC3 CBR 448kbps / DTS-HD MA > AC3 CBR 448kbps / DTS-HD MA > AC3 CBR 448kbps
GENRE : триллер, драма, криминал
HD_VIDEO : 1
IMDB_RATING : 7.10
ITUNEXTC : mpaa|R|400|
MEDIA_TYPE : 9
ORIGINAL_ACTORS : John Hurt, Tim Roth, Laura del Sol (в титрах: Laura Del Sol), Freddie Stuart, Ralph Brown, A.J. Clarke, Terence Stamp, Lennie Peters, Bernie Searle (в титрах: Bernie Searl), Brian Royal, Albie Woodington, Willoughby Gray, Jim Broadbent, Manuel de Benito (в титрах: Manuel De Benito), Juan Calot, Enrique San Francisco (в титрах: Quique San Francisco), Will More (в титрах: Joaquin Alonso), José Luis Fernández «Pirri» (в титрах: Jose Luis Fernandez), Camilo Vilanova, Fernando Rey, Carlos Lucena, Bill Hunter, Mikel Garmendia (в титрах: Miguel Garmendia), Carlos Zabala, Patxi Barko, Xavier Aguirre, Carlos Tristancho (в титрах: M. Carlos Tristancho)
ORIGINAL_TITLE : The Hit
PRODUCER : Джереми Томас, Джойс Херлихи
RATING : 6.983
WRITER : Питер Принц
Video
ID : 1
Format : AVC
Format/Info : Advanced Video Codec
Format profile : High@L4.1
Format settings, CABAC : Yes
Format settings, ReFrames : 4 frames
Codec ID : V_MPEG4/ISO/AVC
Bit rate : 12.5 Mb/s
Width : 1 920 pixels
Height : 1 036 pixels
Display aspect ratio : 1.85:1
Frame rate mode : Variable
Original frame rate : 24.000 FPS
Color space : YUV
Chroma subsampling : 4:2:0
Bit depth : 8 bits
Scan type : Progressive
Bits/(Pixel*Frame) : 0.262
Title : BLU-RAY_1080p_RIP_BY_-=DoMiNo=-
Writing library : x264 core 148 r2762M 90a61ec
Encoding settings : cabac=1 / ref=4 / deblock=1:-3:-3 / analyse=0x3:0x113 / me=umh / subme=11 / psy=1 / psy_rd=1.00:0.10 / mixed_ref=1 / me_range=48 / chroma_me=1 / trellis=2 / 8x8dct=1 / cqm=0 / deadzone=21,11 / fast_pskip=0 / chroma_qp_offset=-3 / threads=5 / lookahead_threads=1 / sliced_threads=0 / nr=0 / decimate=1 / interlaced=0 / bluray_compat=0 / constrained_intra=0 / bframes=6 / b_pyramid=2 / b_adapt=2 / b_bias=0 / direct=3 / weightb=1 / open_gop=0 / weightp=2 / keyint=240 / keyint_min=24 / scenecut=40 / intra_refresh=0 / rc=2pass / mbtree=0 / bitrate=12500 / ratetol=1.0 / qcomp=0.60 / qpmin=0 / qpmax=69 / qpstep=4 / cplxblur=20.0 / qblur=0.5 / ip_ratio=1.40 / pb_ratio=1.30 / aq=1:1.00
Default : Yes
Forced : No
DURATION : 01:37:50.797000000
Audio #1
ID : 2
Format : AC-3
Format/Info : Audio Coding 3
Mode extension : CM (complete main)
Format settings, Endianness : Big
Codec ID : A_AC3
Duration : 1 h 37 min
Bit rate mode : Constant
Bit rate : 448 kb/s
Channel(s) : 6 channels
Channel positions : Front: L C R, Side: L R, LFE
Sampling rate : 48.0 kHz
Frame rate : 31.250 FPS (1536 spf)
Bit depth : 16 bits
Compression mode : Lossy
Stream size : 314 MiB (3%)
Title : Многоголосый закадровый, Cinema Prestige
Language : Russian
Default : Yes
Forced : No
DURATION : 01:37:50.848000000
Audio #2
ID : 3
Format : AC-3
Format/Info : Audio Coding 3
Mode extension : CM (complete main)
Format settings, Endianness : Big
Codec ID : A_AC3
Duration : 1 h 37 min
Bit rate mode : Constant
Bit rate : 448 kb/s
Channel(s) : 6 channels
Channel positions : Front: L C R, Side: L R, LFE
Sampling rate : 48.0 kHz
Frame rate : 31.250 FPS (1536 spf)
Bit depth : 16 bits
Compression mode : Lossy
Stream size : 314 MiB (3%)
Title : Одноголосый закадровый, П.Карцев
Language : Russian
Default : No
Forced : No
DURATION : 01:37:50.848000000
Audio #3
ID : 4
Format : AC-3
Format/Info : Audio Coding 3
Mode extension : CM (complete main)
Format settings, Endianness : Big
Codec ID : A_AC3
Duration : 1 h 37 min
Bit rate mode : Constant
Bit rate : 448 kb/s
Channel(s) : 6 channels
Channel positions : Front: L C R, Side: L R, LFE
Sampling rate : 48.0 kHz
Frame rate : 31.250 FPS (1536 spf)
Bit depth : 16 bits
Compression mode : Lossy
Stream size : 314 MiB (3%)
Title : ENG
Language : English
Default : No
Forced : No
DURATION : 01:37:50.848000000
Text #1
ID : 5
Format : UTF-8
Codec ID : S_TEXT/UTF8
Codec ID/Info : UTF-8 Plain Text
Title : RUS
Language : Russian
Default : Yes
Forced : No
DURATION : 01:33:19.506000000
Text #2
ID : 6
Format : UTF-8
Codec ID : S_TEXT/UTF8
Codec ID/Info : UTF-8 Plain Text
Title : ENG
Language : English
Default : No
Forced : No
DURATION : 01:33:18.047000000
Menu
00:00:00.000 : :Глава 1
00:04:46.165 : :Глава 2
00:08:25.125 : :Глава 3
00:11:52.375 : :Глава 4
00:17:44.288 : :Глава 5
00:26:11.750 : :Глава 6
00:35:30.666 : :Глава 7
00:41:00.416 : :Глава 8
00:47:58.166 : :Глава 9
00:52:00.666 : :Глава 10
00:56:23.375 : :Глава 11
01:01:59.500 : :Глава 12
01:08:56.125 : :Глава 13
01:13:43.041 : :Глава 14
01:22:59.582 : :Глава 15

Скриншоты

[Цитировать]

Топик был перенесен из форума Зарубежное кино (HD Video) в форум Классика зарубежного кино (HD Video)
Scorpio



Показать сообщения:    

Текущее время: 12-Май 01:38

Часовой пояс: UTC + 6


Вы не можете начинать темы
Вы не можете отвечать на сообщения
Вы не можете редактировать свои сообщения
Вы не можете удалять свои сообщения
Вы не можете голосовать в опросах
Вы не можете прикреплять файлы к сообщениям
Вы не можете скачивать файлы

!ВНИМАНИЕ!
Сайт не предоставляет электронные версии произведений, а занимается лишь коллекционированием и каталогизацией ссылок, присылаемых и публикуемых на форуме нашими читателями. Если вы являетесь правообладателем какого-либо представленного материала и не желаете, чтобы ссылка на него находилась в нашем каталоге, свяжитесь с нами, и мы незамедлительно удалим ее. Файлы для обмена на трекере предоставлены пользователями сайта, и администрация не несет ответственности за их содержание. Просьба не заливать файлы, защищенные авторскими правами, а также файлы нелегального содержания!