***Уважаемые пользователи и гости !!! Сайт переехал на новый домен Torrents-club.info. Просьба изменить ваши закладки! ***
 
[ Сегодня идет свободное скачивание без начисления Download ]


Статистика раздачи
Нет
 
   
 
 
 
Потап и Настя Каменских - Дискография -Исполнитель: Потап и Настя Каменских
Жанр: R&B
Дата выпуска: 2008 - 2013
Страна исполнителя (группы): Украина
Страна-производитель диска: Россия
Формат: APE (image+cue)
Битрейт: 964-971 kbps
Продолжительность: 3 CD, 02:40:30
Источник (релизер):Mr. Krolik

01 - Не пара (Альбом №1)

Исполнитель: Потап и Настя Каменских
Альбом: Не пара (Альбом №1)
Жанр: R&B
Дата выпуска: 2008
Страна исполнителя (группы): Украина
Лейбл: Mozgi Entertainment,Real Records
Формат: APE (image+cue)
Битрейт: 964 kbps
Продолжительность: 00:55:30
Источник: Mr. Krolik
Треклист:
01. Интро (Яфшоке!) [00:01:12]
02. Икра [00:02:54]
03. Крепкие Орешки [00:03:26]
04. Не Пара [00:02:52]
05. Друзья (При Участии Любимой Группы Любэ) [00:03:54]
06. Николай [00:03:56]
07. В Натуре [00:03:40]
08. Щёлкни Пальцами [00:02:55]
09. Знаешь [00:03:14]
10. Хуторянка [00:03:17]
11. Лил Дождь [00:04:04]
12. Почему [00:03:36]
13. Чужой В Моей Постели [00:03:12]
14. Без Любви [00:03:31]
15. А У Нас Во Дворе [00:02:41]
16. Разгуляй [00:04:09]
17. Хит Из Двух Нот [00:02:49]

Отчёт EAC

Exact Audio Copy V1.0 beta 3 from 29. August 2011
EAC extraction logfile from 1. October 2014, 14:38
Настя Каменских & Потап / Настя Каменских & Потап
Used drive  : ASUS    DRW-22B3S   Adapter: 0  ID: 1
Read mode               : Secure
Utilize accurate stream : Yes
Defeat audio cache      : Yes
Make use of C2 pointers : No
Read offset correction                      : 6
Overread into Lead-In and Lead-Out          : No
Fill up missing offset samples with silence : Yes
Delete leading and trailing silent blocks   : No
Null samples used in CRC calculations       : Yes
Used interface                              : Native Win32 interface for Win NT & 2000
Used output format              : Monkey's Audio Lossless Encoder
Selected bitrate                : Fast Lossless Compression
Quality                         : High
Add ID3 tag                     : No
Command line compressor         : C:\Users\Krolik\Desktop\Exact Audio Copy 1.0 beta 3 Portable\EAC_1.0_beta_3_Portable_Multilingual\App\APE\MAC.exe
TOC of the extracted CD
     Track |   Start  |  Length  | Start sector | End sector
    ---------------------------------------------------------
        1  |  0:00.00 |  1:14.42 |         0    |     5591
        2  |  1:14.42 |  2:55.72 |      5592    |    18788
        3  |  4:10.39 |  3:27.63 |     18789    |    34376
        4  |  7:38.27 |  2:54.57 |     34377    |    47483
        5  | 10:33.09 |  3:55.71 |     47484    |    65179
        6  | 14:29.05 |  3:57.64 |     65180    |    83018
        7  | 18:26.69 |  3:42.33 |     83019    |    99701
        8  | 22:09.27 |  2:57.62 |     99702    |   113038
        9  | 25:07.14 |  3:16.23 |    113039    |   127761
       10  | 28:23.37 |  3:19.16 |    127762    |   142702
       11  | 31:42.53 |  4:06.35 |    142703    |   161187
       12  | 35:49.13 |  3:38.34 |    161188    |   177571
       13  | 39:27.47 |  3:14.00 |    177572    |   192121
       14  | 42:41.47 |  3:33.44 |    192122    |   208140
       15  | 46:15.16 |  2:42.48 |    208141    |   220338
       16  | 48:57.64 |  4:11.38 |    220339    |   239201
       17  | 53:09.27 |  2:51.39 |    239202    |   252065
Range status and errors
Selected range
     Filename C:\Users\Krolik\Desktop\Новая папка (10)\Настя Каменских & Потап - Настя Каменских & Потап.wav
     Peak level 97.7 %
     Extraction speed 6.9 X
     Range quality 100.0 %
     Test CRC 30A0B416
     Copy CRC 30A0B416
     Copy OK
No errors occurred
End of status report

02 - Не люби мне мозги (Альбом №2)

Исполнитель: Потап и Настя Каменских
Альбом: Не люби мне мозги (Альбом №2)
Жанр: R&B
Дата выпуска: 2009
Страна исполнителя (группы): Украина
Лейбл: Mozgi Entertainment,Real Records
Формат: APE (image+cue)
Битрейт: 971 kbps
Продолжительность: 00:48:03
Источник: Mr. Krolik

Треклист

01. По кругу [00:03:44]
02. Нунифигасебе! (Интро) [00:01:55]
03. Разговор роботов [00:00:19]
04. Не люби мне мозги [00:03:07]
05. День рождения в квартире [00:00:59]
06. Позвони своей зае [00:03:13]
07. Мусора [00:00:57]
08. Пврышки [00:00:10]
09. На раЁне [00:03:02]
10. Рио де Жанейро [00:00:34]
11. Чипсы, чиксы, лавандос (Село) [00:03:42]
12. 7 дней [00:00:32]
13. Кредит [00:03:46]
14. Банкрот [00:01:00]
15. Собака лучше чем жена [00:00:51]
16. Сандаль [00:02:59]
17. Голуби [00:03:51]
18. Напильник и мама [00:01:05]
19. Качаем (при участии New'Z'cool, Дядя Вадя, Юго) [00:03:49]
20. Новый год [00:03:00]
21. Проповедь [00:01:50]
22. Край ми э ривер [00:03:27]

Отчёт EAC

Exact Audio Copy V1.0 beta 3 from 29. August 2011
EAC extraction logfile from 1. October 2014, 14:48
Потап и Настя Каменских / Не люби мне мозги (Альбом №2)
Used drive  : ASUS    DRW-22B3S   Adapter: 0  ID: 1
Read mode               : Secure
Utilize accurate stream : Yes
Defeat audio cache      : Yes
Make use of C2 pointers : No
Read offset correction                      : 6
Overread into Lead-In and Lead-Out          : No
Fill up missing offset samples with silence : Yes
Delete leading and trailing silent blocks   : No
Null samples used in CRC calculations       : Yes
Used interface                              : Native Win32 interface for Win NT & 2000
Used output format              : Monkey's Audio Lossless Encoder
Selected bitrate                : Fast Lossless Compression
Quality                         : High
Add ID3 tag                     : No
Command line compressor         : C:\Users\Krolik\Desktop\Exact Audio Copy 1.0 beta 3 Portable\EAC_1.0_beta_3_Portable_Multilingual\App\APE\MAC.exe
TOC of the extracted CD
     Track |   Start  |  Length  | Start sector | End sector
    ---------------------------------------------------------
        1  |  0:00.00 |  3:44.41 |         0    |    16840
        2  |  3:44.41 |  1:55.70 |     16841    |    25535
        3  |  5:40.36 |  0:19.02 |     25536    |    26962
        4  |  5:59.38 |  3:07.24 |     26963    |    41011
        5  |  9:06.62 |  0:59.51 |     41012    |    45487
        6  | 10:06.38 |  3:13.12 |     45488    |    59974
        7  | 13:19.50 |  0:57.30 |     59975    |    64279
        8  | 14:17.05 |  0:10.35 |     64280    |    65064
        9  | 14:27.40 |  3:02.62 |     65065    |    78776
       10  | 17:30.27 |  0:34.11 |     78777    |    81337
       11  | 18:04.38 |  3:42.43 |     81338    |    98030
       12  | 21:47.06 |  0:32.33 |     98031    |   100463
       13  | 22:19.39 |  3:46.43 |    100464    |   117456
       14  | 26:06.07 |  1:00.66 |    117457    |   122022
       15  | 27:06.73 |  0:51.69 |    122023    |   125916
       16  | 27:58.67 |  2:59.26 |    125917    |   139367
       17  | 30:58.18 |  3:51.34 |    139368    |   156726
       18  | 34:49.52 |  1:05.26 |    156727    |   161627
       19  | 35:55.03 |  3:49.18 |    161628    |   178820
       20  | 39:44.21 |  3:00.36 |    178821    |   192356
       21  | 42:44.57 |  1:50.62 |    192357    |   200668
       22  | 44:35.44 |  3:27.65 |    200669    |   216258
Range status and errors
Selected range
     Filename C:\Users\Krolik\Desktop\Новая папка (12)\Потап и Настя Каменских - Не люби мне мозги (Альбом №2).wav
     Peak level 100.0 %
     Extraction speed 5.9 X
     Range quality 100.0 %
     Test CRC 6B3B9857
     Copy CRC 6B3B9857
     Copy OK
No errors occurred
End of status report

03 - Всё пучком (Альбом №3)

Исполнитель: Потап и Настя
Альбом: Всё пучком (Альбом №3)
Жанр: R&B
Дата выпуска: 2013
Страна исполнителя (группы): Украина
Формат: APE (image+cue)
Битрейт: 965 kbps
Продолжительность: 00:56:55
Источник: Mozgi Entertainment,Real Records

Треклист

01. Интро [00:01:52]
02. Всё пучком [00:03:18]
03. Супермодель [00:01:59]
04. Любовь со скидкой [00:03:39]
05. Круг [00:00:37]
06. Не могу я без тебя [00:03:16]
07. Маячок [00:03:29]
08. Урок [00:00:57]
09. Чумачечная весна [00:03:13]
10. Мы отменяем К.С. [00:03:16]
11. Прилелето [00:03:16]
12. Стишок [00:00:36]
13. Вместе [00:03:11]
14. Рыбы-пилы [00:00:57]
15. Гимнастика, ч.1 [00:00:04]
16. РуРуРу [00:02:58]
17. Гимнастика, ч.2 [00:00:34]
18. Улетело [00:03:29]
19. Если вдруг [00:03:22]
20. Не хватило водуха [00:03:26]
21. Принцессы [00:02:53]
22. Вместе (Uncensored) [00:03:05]
23. Awesome summer [00:03:16]

Отчёт EAC

Exact Audio Copy V1.0 beta 3 from 29. August 2011
EAC extraction logfile from 1. October 2014, 15:01
Потап и Настя / Всё пучком Альбом №3
Used drive  : ASUS    DRW-22B3S   Adapter: 0  ID: 1
Read mode               : Secure
Utilize accurate stream : Yes
Defeat audio cache      : Yes
Make use of C2 pointers : No
Read offset correction                      : 6
Overread into Lead-In and Lead-Out          : No
Fill up missing offset samples with silence : Yes
Delete leading and trailing silent blocks   : No
Null samples used in CRC calculations       : Yes
Used interface                              : Native Win32 interface for Win NT & 2000
Used output format              : Monkey's Audio Lossless Encoder
Selected bitrate                : Fast Lossless Compression
Quality                         : High
Add ID3 tag                     : No
Command line compressor         : C:\Users\Krolik\Desktop\Exact Audio Copy 1.0 beta 3 Portable\EAC_1.0_beta_3_Portable_Multilingual\App\APE\MAC.exe
TOC of the extracted CD
     Track |   Start  |  Length  | Start sector | End sector
    ---------------------------------------------------------
        1  |  0:00.00 |  1:52.06 |         0    |     8405
        2  |  1:52.06 |  3:18.51 |      8406    |    23306
        3  |  5:10.57 |  1:59.56 |     23307    |    32287
        4  |  7:10.38 |  3:39.70 |     32288    |    48782
        5  | 10:50.33 |  0:37.73 |     48783    |    51630
        6  | 11:28.31 |  3:16.22 |     51631    |    66352
        7  | 14:44.53 |  3:29.22 |     66353    |    82049
        8  | 18:14.00 |  0:57.74 |     82050    |    86398
        9  | 19:11.74 |  3:13.56 |     86399    |   100929
       10  | 22:25.55 |  3:16.31 |    100930    |   115660
       11  | 25:42.11 |  3:16.70 |    115661    |   130430
       12  | 28:59.06 |  0:36.55 |    130431    |   133185
       13  | 29:35.61 |  3:11.25 |    133186    |   147535
       14  | 32:47.11 |  0:57.10 |    147536    |   151820
       15  | 33:44.21 |  0:04.28 |    151821    |   152148
       16  | 33:48.49 |  2:58.39 |    152149    |   165537
       17  | 36:47.13 |  0:34.61 |    165538    |   168148
       18  | 37:21.74 |  3:29.08 |    168149    |   183831
       19  | 40:51.07 |  3:22.61 |    183832    |   199042
       20  | 44:13.68 |  3:26.53 |    199043    |   214545
       21  | 47:40.46 |  2:53.59 |    214546    |   227579
       22  | 50:34.30 |  3:05.03 |    227580    |   241457
       23  | 53:39.33 |  3:16.25 |    241458    |   256182
Range status and errors
Selected range
     Filename C:\Users\Krolik\Desktop\Новая папка (10)\Потап и Настя - Всё пучком Альбом №3.wav
     Peak level 97.1 %
     Extraction speed 6.2 X
     Range quality 100.0 %
     Test CRC 7AEC7FFC
     Copy CRC 7AEC7FFC
     Copy OK
No errors occurred
AccurateRip summary
Track   1  accurately ripped (confidence 2)  [1D07A9C5]  (AR v2)
Track   2  accurately ripped (confidence 2)  [E68FBE6B]  (AR v2)
Track   3  accurately ripped (confidence 2)  [DADC9659]  (AR v2)
Track   4  accurately ripped (confidence 2)  [36C65A5A]  (AR v2)
Track   5  accurately ripped (confidence 2)  [AA48A914]  (AR v2)
Track   6  accurately ripped (confidence 2)  [57FF9431]  (AR v2)
Track   7  accurately ripped (confidence 2)  [FE4EBEFD]  (AR v2)
Track   8  accurately ripped (confidence 2)  [37797881]  (AR v2)
Track   9  accurately ripped (confidence 2)  [9885A0E7]  (AR v2)
Track  10  accurately ripped (confidence 2)  [61AC8A07]  (AR v2)
Track  11  accurately ripped (confidence 2)  [5977489D]  (AR v2)
Track  12  accurately ripped (confidence 2)  [82D0C464]  (AR v2)
Track  13  accurately ripped (confidence 2)  [940F8B00]  (AR v2)
Track  14  accurately ripped (confidence 2)  [1CB8DC52]  (AR v2)
Track  15  not present in database
Track  16  accurately ripped (confidence 2)  [B5CA4498]  (AR v2)
Track  17  accurately ripped (confidence 2)  [6CF5422A]  (AR v2)
Track  18  accurately ripped (confidence 2)  [A536522E]  (AR v2)
Track  19  accurately ripped (confidence 2)  [3E123D19]  (AR v2)
Track  20  accurately ripped (confidence 2)  [BF077EAA]  (AR v2)
Track  21  accurately ripped (confidence 2)  [BA4CD24D]  (AR v2)
Track  22  accurately ripped (confidence 2)  [244E65F6]  (AR v2)
Track  23  accurately ripped (confidence 2)  [F38B7C0C]  (AR v2)
22 track(s) accurately ripped
1 track(s) not present in the AccurateRip database
End of status report

[Цитировать]



Показать сообщения:    

Текущее время: 12-Май 02:31

Часовой пояс: UTC + 6


Вы не можете начинать темы
Вы не можете отвечать на сообщения
Вы не можете редактировать свои сообщения
Вы не можете удалять свои сообщения
Вы не можете голосовать в опросах
Вы не можете прикреплять файлы к сообщениям
Вы не можете скачивать файлы

!ВНИМАНИЕ!
Сайт не предоставляет электронные версии произведений, а занимается лишь коллекционированием и каталогизацией ссылок, присылаемых и публикуемых на форуме нашими читателями. Если вы являетесь правообладателем какого-либо представленного материала и не желаете, чтобы ссылка на него находилась в нашем каталоге, свяжитесь с нами, и мы незамедлительно удалим ее. Файлы для обмена на трекере предоставлены пользователями сайта, и администрация не несет ответственности за их содержание. Просьба не заливать файлы, защищенные авторскими правами, а также файлы нелегального содержания!