***Уважаемые пользователи и гости !!! Сайт переехал на новый домен Torrents-club.info. Просьба изменить ваши закладки! ***
 
[ Сегодня идет свободное скачивание без начисления Download ]


Статистика раздачи
Скачал: [ 1 ]
 
   
 
 
 
 
ITVDN | Видео курс Java Starter & Essential(2016) PCRec - Автор (режиссер): Евгений Тихонов
Производство: ITVDN
Жанр: Программирование, java
Описание:
Курс «JAVA Стартовый» предназначен для новичков в программировании, а также начинающих разработчиков и программистов, которые хотят в кратчайшие сроки изучить основы программирования, но никак не определились с конкретным языком программирования. В процессе изучения Вы поймете, почему JAVA является доступным и простым для изучения языком, определите, какую роль он играет в разработке приложений и какими возможностями обладает, научитесь использовать его сильные стороны в собственных проектах.
Видео курс Java Essential - Обучение программированию происходит, начиная с изучения основных понятий и принципов объектно-ориентированного программирования, классов, а также особенностей языка Java, и заканчивая рассмотрением базовых понятий такой парадигмы как Java Generics.
Продолжительность: 09:46:51
Качество видео: PCRec
Видео: AVC/H.264, 1920x1080, ~320 kb/s
Аудио: AAC, 2 ch, 235 kb/s, CBR

Mediainfo:

General
Complete name                            : D:\КУРСЫ\ITVDN NEW\Java Starter\Урок 1.MP4
Format                                   : MPEG-4
Format profile                           : Base Media / Version 2
Codec ID                                 : mp42 (mp42/mp41/isom/avc1)
File size                                : 165 MiB
Duration                                 : 41 min
Overall bit rate mode                    : Variable
Overall bit rate                         : 559 kb/s
Encoded date                             : UTC 2016-06-17 15:31:28
Tagged date                              : UTC 2016-06-17 15:31:28
Video
ID                                       : 1
Format                                   : AVC
Format/Info                              : Advanced Video Codec
Format profile                           : High@L4
Format settings, CABAC                   : Yes
Format settings, ReFrames                : 4 frames
Codec ID                                 : avc1
Codec ID/Info                            : Advanced Video Coding
Duration                                 : 41 min
Bit rate                                 : 320 kb/s
Width                                    : 1 920 pixels
Height                                   : 1 080 pixels
Display aspect ratio                     : 16:9
Frame rate mode                          : Constant
Frame rate                               : 30.000 FPS
Color space                              : YUV
Chroma subsampling                       : 4:2:0
Bit depth                                : 8 bits
Scan type                                : Progressive
Bits/(Pixel*Frame)                       : 0.005
Stream size                              : 94.3 MiB (57%)
Writing library                          : x264 core 148 r11 3b70645
Encoding settings                        : cabac=1 / ref=4 / deblock=1:0:0 / analyse=0x3:0x113 / me=umh / subme=8 / psy=1 / psy_rd=1.00:0.00 / mixed_ref=1 / me_range=16 / chroma_me=1 / trellis=1 / 8x8dct=1 / cqm=0 / deadzone=21,11 / fast_pskip=1 / chroma_qp_offset=-2 / threads=34 / lookahead_threads=5 / sliced_threads=0 / nr=0 / decimate=1 / interlaced=0 / bluray_compat=0 / stitchable=1 / constrained_intra=0 / bframes=3 / b_pyramid=2 / b_adapt=2 / b_bias=0 / direct=3 / weightb=1 / open_gop=0 / weightp=2 / keyint=infinite / keyint_min=30 / scenecut=40 / intra_refresh=0 / rc_lookahead=50 / rc=crf / mbtree=1 / crf=20.0 / qcomp=0.60 / qpmin=5 / qpmax=69 / qpstep=4 / vbv_maxrate=4950 / vbv_bufsize=13500 / crf_max=0.0 / nal_hrd=none / filler=0 / ip_ratio=1.40 / aq=1:1.00
Encoded date                             : UTC 2016-06-17 15:31:28
Tagged date                              : UTC 2016-06-17 15:31:28
Color range                              : Limited
Color primaries                          : BT.709
Transfer characteristics                 : BT.709
Matrix coefficients                      : BT.709
Audio
ID                                       : 2
Format                                   : AAC
Format/Info                              : Advanced Audio Codec
Format profile                           : LC
Codec ID                                 : 40
Duration                                 : 41 min
Bit rate mode                            : Variable
Bit rate                                 : 235 kb/s
Channel(s)                               : 2 channels
Channel positions                        : Front: L R
Sampling rate                            : 48.0 kHz
Frame rate                               : 46.875 FPS (1024 spf)
Compression mode                         : Lossy
Stream size                              : 69.4 MiB (42%)
Encoded date                             : UTC 2016-06-17 15:31:28
Tagged date                              : UTC 2016-06-17 15:31:28

Доп. информация

1. Введение в инфраструктуру Java
2. Машинная математика. Переменные и типы данных
3. Переменные и типы данных
4. Условные конструкции Логические операции
5. Логические операции
6. Циклические конструкции
7. Методы
8. Методы. Рекурсия
9. Массивы

Java Essential

1. Введение в ООП. Классы и объекты
2. Классы и Объекты
3. Наследование и полиморфизм
4. Абстрактные классы и интерфейсы
5. Списки
6. Статические и вложенные классы
7. Анонимные классы и перечислительные типы
8. Обработка исключений
9. Суперкласс Object
10. Универсальные шаблоны
Скриншоты:

[Цитировать]



Показать сообщения:    

Текущее время: 12-Май 02:11

Часовой пояс: UTC + 6


Вы не можете начинать темы
Вы не можете отвечать на сообщения
Вы не можете редактировать свои сообщения
Вы не можете удалять свои сообщения
Вы не можете голосовать в опросах
Вы не можете прикреплять файлы к сообщениям
Вы не можете скачивать файлы

!ВНИМАНИЕ!
Сайт не предоставляет электронные версии произведений, а занимается лишь коллекционированием и каталогизацией ссылок, присылаемых и публикуемых на форуме нашими читателями. Если вы являетесь правообладателем какого-либо представленного материала и не желаете, чтобы ссылка на него находилась в нашем каталоге, свяжитесь с нами, и мы незамедлительно удалим ее. Файлы для обмена на трекере предоставлены пользователями сайта, и администрация не несет ответственности за их содержание. Просьба не заливать файлы, защищенные авторскими правами, а также файлы нелегального содержания!