***Уважаемые пользователи и гости !!! Сайт переехал на новый домен Torrents-club.info. Просьба изменить ваши закладки! ***
 
[ Сегодня идет свободное скачивание без начисления Download ]


Статистика раздачи
Нет
 
   
 
 
 
Mick Jagger - Primitive Cool (1987) - Год: 1987
Жанр: Rock
Продолжительность: 00:49:22
Кодек: FLAC
Битрейт: Lossless
Тип рипа: image + .cue
Треклист:
01. Throwaway 5:04
02. Let's Work 4:51
03. Radio Control 3:57
04. Say You Will 5:07
05. Primitive Cool 5:50
06. Kow Tow 4:55
07. Shoot Off Your Mouth 3:35
08. Peace For The Wicked 4:04
09. Party Doll 5:20
10. War Baby 6:40

Отчёт EAC:

Exact Audio Copy V1.3 from 2. September 2016
EAC extraction logfile from 26. December 2016, 18:45
Mick Jagger / Primitive Cool (CK 40919)
Used drive  : PLEXTOR DVDR   PX-891SA   Adapter: 1  ID: 0
Read mode               : Secure
Utilize accurate stream : Yes
Defeat audio cache      : Yes
Make use of C2 pointers : No
Read offset correction                      : 6
Overread into Lead-In and Lead-Out          : No
Fill up missing offset samples with silence : Yes
Delete leading and trailing silent blocks   : No
Null samples used in CRC calculations       : Yes
Used interface                              : Native Win32 interface for Win NT & 2000
Used output format              : User Defined Encoder
Selected bitrate                : 128 kBit/s
Quality                         : High
Add ID3 tag                     : No
Command line compressor         : C:\Program Files (x86)\Exact Audio Copy\Flac\flac.exe
Additional command line options :   -V -8 -T "Genre=%genre%" -T "Artist=%artist%" -T "Title=%title%" -T "Album=%albumtitle%" -T "Date=%year%" -T "Tracknumber=%tracknr%" -T "Comment=%comment%" %source%
TOC of the extracted CD
     Track |   Start  |  Length  | Start sector | End sector
    ---------------------------------------------------------
        1  |  0:00.37 |  5:04.13 |        37    |    22849
        2  |  5:04.50 |  4:50.55 |     22850    |    44654
        3  |  9:55.30 |  3:56.40 |     44655    |    62394
        4  | 13:51.70 |  5:07.12 |     62395    |    85431
        5  | 18:59.07 |  5:49.68 |     85432    |   111674
        6  | 24:49.00 |  4:54.67 |    111675    |   133791
        7  | 29:43.67 |  3:34.38 |    133792    |   149879
        8  | 33:18.30 |  4:03.50 |    149880    |   168154
        9  | 37:22.05 |  5:19.70 |    168155    |   192149
       10  | 42:42.00 |  6:40.37 |    192150    |   222186
Range status and errors
Selected range
     Filename H:\dafnaplus\Mick Jagger - Primitive Cool\Mick Jagger - Primitive Cool (CK 40919).wav
     Peak level 100.0 %
     Extraction speed 7.7 X
     Range quality 99.9 %
     Test CRC 8C4385B1
     Copy CRC 8C4385B1
     Copy OK
No errors occurred
AccurateRip summary
Track  1  accurately ripped (confidence 15)  [4CB7BC19]  (AR v2)
Track  2  accurately ripped (confidence 15)  [BA9FFD0E]  (AR v2)
Track  3  accurately ripped (confidence 15)  [BE9D8402]  (AR v2)
Track  4  accurately ripped (confidence 15)  [3DF8588D]  (AR v2)
Track  5  accurately ripped (confidence 15)  [1703A07E]  (AR v2)
Track  6  accurately ripped (confidence 15)  [37D2FDB9]  (AR v2)
Track  7  accurately ripped (confidence 15)  [84A8D9D7]  (AR v2)
Track  8  accurately ripped (confidence 15)  [1C3CE60E]  (AR v2)
Track  9  accurately ripped (confidence 11)  [67937C01]  (AR v2)
Track 10  accurately ripped (confidence 15)  [47E7F954]  (AR v2)
All tracks accurately ripped
End of status report
---- CUETools DB Plugin V2.1.6
[CTDB TOCID: f7HkUoKRalwbh50UePjGbOgY_GM-] found
Submit result: f7HkUoKRalwbh50UePjGbOgY_GM- has been confirmed
Track | CTDB Status
  1   | (10/10) Accurately ripped
  2   | (10/10) Accurately ripped
  3   | (10/10) Accurately ripped
  4   | (10/10) Accurately ripped
  5   | (10/10) Accurately ripped
  6   | (10/10) Accurately ripped
  7   | (10/10) Accurately ripped
  8   | (10/10) Accurately ripped
  9   | ( 2/10) Accurately ripped, or (8/10) differs in 9 samples @03:12:33
10   | (10/10) Accurately ripped
If you are sure that your rip contains errors, you can use CUETools to repair it.
==== Log checksum C351992A487364AACBE386D8613DA512C247A83A7FA47573449291D24835AAB2 ====

Cue Sheet (.cue):

REM GENRE Rock
REM DATE 1987
REM DISCID 780B920A
REM COMMENT "ExactAudioCopy v1.3"
PERFORMER "Mick Jagger"
TITLE "Primitive Cool (CK 40919)"
REM COMPOSER ""
FILE "Mick Jagger - Primitive Cool (CK 40919).flac" WAVE
  TRACK 01 AUDIO
    TITLE "Throwaway"
    PERFORMER "Mick Jagger"
    REM COMPOSER ""
    INDEX 00 00:00:00
    INDEX 01 00:00:37
  TRACK 02 AUDIO
    TITLE "Let's Work"
    PERFORMER "Mick Jagger"
    REM COMPOSER ""
    INDEX 01 05:04:50
  TRACK 03 AUDIO
    TITLE "Radio Control"
    PERFORMER "Mick Jagger"
    REM COMPOSER ""
    INDEX 00 09:54:58
    INDEX 01 09:55:30
  TRACK 04 AUDIO
    TITLE "Say You Will"
    PERFORMER "Mick Jagger"
    REM COMPOSER ""
    INDEX 00 13:51:33
    INDEX 01 13:51:70
  TRACK 05 AUDIO
    TITLE "Primitive Cool"
    PERFORMER "Mick Jagger"
    REM COMPOSER ""
    INDEX 00 18:58:08
    INDEX 01 18:59:07
  TRACK 06 AUDIO
    TITLE "Kow Tow"
    PERFORMER "Mick Jagger"
    REM COMPOSER ""
    INDEX 01 24:49:00
  TRACK 07 AUDIO
    TITLE "Shoot Off Your Mouth"
    PERFORMER "Mick Jagger"
    REM COMPOSER ""
    INDEX 01 29:43:67
  TRACK 08 AUDIO
    TITLE "Peace For The Wicked"
    PERFORMER "Mick Jagger"
    REM COMPOSER ""
    INDEX 01 33:18:30
  TRACK 09 AUDIO
    TITLE "Party Doll"
    PERFORMER "Mick Jagger"
    REM COMPOSER ""
    INDEX 00 37:20:33
    INDEX 01 37:22:05
  TRACK 10 AUDIO
    TITLE "War Baby"
    PERFORMER "Mick Jagger"
    REM COMPOSER ""
    INDEX 00 42:41:58
    INDEX 01 42:42:00

Отчёт auCDtect Task manager:

-----------------------
DON'T MODIFY THIS FILE
-----------------------
PERFORMER: auCDtect Task Manager, ver. 1.6.0 RC1 build 1.6.0.1
Copyright (c) 2008-2010 y-soft. All rights reserved
[url=http://y-soft.org]http://y-soft.org[/url]
ANALYZER: auCDtect: CD records authenticity detector, version 0.8.2
Copyright (c) 2004 Oleg Berngardt. All rights reserved.
Copyright (c) 2004 Alexander Djourik. All rights reserved.
FILE: Mick Jagger - Primitive Cool (CK 40919).flac
  Size: 320414965 Hash: 6D38909F77F09F595AA90A8FDF3DDC60 Accuracy: -m0
  Conclusion: MPEG 95%
  Signature: FD11A439C169B3D7EF04EA2C52A9B61DD5982894

Спектрограмма:

[Цитировать]



Показать сообщения:    

Текущее время: 12-Май 02:41

Часовой пояс: UTC + 6


Вы не можете начинать темы
Вы не можете отвечать на сообщения
Вы не можете редактировать свои сообщения
Вы не можете удалять свои сообщения
Вы не можете голосовать в опросах
Вы не можете прикреплять файлы к сообщениям
Вы не можете скачивать файлы

!ВНИМАНИЕ!
Сайт не предоставляет электронные версии произведений, а занимается лишь коллекционированием и каталогизацией ссылок, присылаемых и публикуемых на форуме нашими читателями. Если вы являетесь правообладателем какого-либо представленного материала и не желаете, чтобы ссылка на него находилась в нашем каталоге, свяжитесь с нами, и мы незамедлительно удалим ее. Файлы для обмена на трекере предоставлены пользователями сайта, и администрация не несет ответственности за их содержание. Просьба не заливать файлы, защищенные авторскими правами, а также файлы нелегального содержания!