***Уважаемые пользователи и гости !!! Сайт переехал на новый домен Torrents-club.info. Просьба изменить ваши закладки! ***
 
[ Сегодня идет свободное скачивание без начисления Download ]


Статистика раздачи
Нет
 
   
 
 
 
 
Заезжий молодец (2014) WEB-DLRip [H.264] - Производство: Россия
Жанр: Мелодрама
Режиссер: Кира Ангелина
Актеры: Мария Куликова, Александр Усердин, Алексей Зубков, Артур Псакин, Наталия Просветова, Диана Енакаева, Татьяна Шатилова
Описание:
Лариса — сильная женщина, которая давно привыкла сама справляться с любыми проблемами. Она в одиночку воспитывает непростого сына-подростка, тяжёлым трудом зарабатывает на жизнь, и давно отчаялась обрести личное счастье.
Соседка Ларисы, желая завладеть её домом, сводит героиню со своим племянником Олегом, недалеким солдафоном. Устав от бесконечного одиночества, Лариса пытается построить с ним отношения, но сговор вскоре раскрывается…
Неожиданно Лариса становится свидетельницей того, как полиция задерживает на улице мужчину без документов. Проникнувшись к незнакомцу, героиня помогает ему освободиться и платит за него штраф. На следующий день спасённый появляется у неё дома, но вовсе не затем, чтобы отдать долг — он просит Ларису о ночлеге. В гневе героиня прогоняет его, но дальнейшие события в корне меняют отношение женщины к этому человеку, так странно появившемуся в её жизни

Возраст: 12+ (зрителям, достигшим 12 лет)
Дата мировой премьеры: 18 октября 2014
Дата российской премьеры: 22 ноября 2014
Продолжительность: 01:30:00
Качество видео: WEB-DLRip [sample]
Видео: AVC/H.264, 1024x576, ~1965 kbps
Аудио: AC3, 2 ch, 192 kbps

Mediainfo:

Общее
Уникальный идентификатор : 205288994434683429189187964172363797142 (0x9A7138DFB4DC873B83C9977E3E329296)
Полное имя : D:\Загрузки uTorrent\Заезжий молодец.2014.WEB-DLRip.AVC.by.Серый1779.Files-x.mkv
Формат : Matroska
Версия формата : Version 2
Размер файла : 1,37 Гбайт
Продолжительность : 1 ч. 30 м.
Общий поток : 2158 Кбит/сек
Дата кодирования : UTC 2016-07-24 07:55:49
Программа кодирования : mkvmerge v6.1.0 ('Old Devil') built on Mar 4 2013 09:10:42
Библиотека кодирования : libebml v1.3.0 + libmatroska v1.4.0
Видео
Идентификатор : 1
Формат : AVC
Формат/Информация : Advanced Video Codec
Профиль формата : High@L4.1
Параметр CABAC формата : Да
Параметр ReFrames формата : 9 кадров
Идентификатор кодека : V_MPEG4/ISO/AVC
Продолжительность : 1 ч. 30 м.
Битрейт : 1965 Кбит/сек
Ширина : 1024 пикселя
Высота : 576 пикселей
Соотношение сторон : 16:9
Режим частоты кадров : Постоянный
Частота кадров : 25,000 кадров/сек
Цветовое пространство : YUV
Субдискретизация насыщенности : 4:2:0
Битовая глубина : 8 бит
Тип развёртки : Прогрессивная
Бит/(Пиксели*Кадры) : 0.133
Размер потока : 1,22 Гбайт (89%)
Библиотека кодирования : x264 core 130 r2273 b3065e6
Настройки программы : cabac=1 / ref=9 / deblock=1:-2:-1 / analyse=0x3:0x133 / me=umh / subme=9 / psy=1 / psy_rd=1.00:0.15 / mixed_ref=1 / me_range=32 / chroma_me=1 / trellis=2 / 8x8dct=1 / cqm=0 / deadzone=21,11 / fast_pskip=0 / chroma_qp_offset=-3 / threads=6 / lookahead_threads=1 / sliced_threads=0 / nr=0 / decimate=1 / interlaced=0 / bluray_compat=0 / constrained_intra=0 / bframes=9 / b_pyramid=2 / b_adapt=2 / b_bias=0 / direct=1 / weightb=1 / open_gop=0 / weightp=2 / keyint=250 / keyint_min=25 / scenecut=40 / intra_refresh=0 / rc=2pass / mbtree=0 / bitrate=1965 / ratetol=1.0 / qcomp=0.60 / qpmin=0 / qpmax=69 / qpstep=4 / cplxblur=20.0 / qblur=0.5 / ip_ratio=1.40 / pb_ratio=1.30 / aq=2:1.00
Default : Да
Forced : Нет
Цветовой диапазон : Limited
Основные цвета : BT.709
Характеристики трансфера : BT.709
Коэффициенты матрицы : BT.709
Аудио
Идентификатор : 2
Формат : AC-3
Формат/Информация : Audio Coding 3
Расширение режима : CM (complete main)
Параметр Endianness формата : Big
Идентификатор кодека : A_AC3
Продолжительность : 1 ч. 30 м.
Вид битрейта : Постоянный
Битрейт : 192 Кбит/сек
Каналы : 2 канала
Расположение каналов : Front: L R
Частота : 44,1 КГц
Частота кадров : 28,711 кадров/сек (1536 spf)
Битовая глубина : 16 бит
Метод сжатия : С потерями
Размер потока : 125 Мбайт (9%)
Default : Да
Forced : Нет
Скриншоты:

[Цитировать]



Показать сообщения:    

Текущее время: 12-Май 01:29

Часовой пояс: UTC + 6


Вы не можете начинать темы
Вы не можете отвечать на сообщения
Вы не можете редактировать свои сообщения
Вы не можете удалять свои сообщения
Вы не можете голосовать в опросах
Вы не можете прикреплять файлы к сообщениям
Вы не можете скачивать файлы

!ВНИМАНИЕ!
Сайт не предоставляет электронные версии произведений, а занимается лишь коллекционированием и каталогизацией ссылок, присылаемых и публикуемых на форуме нашими читателями. Если вы являетесь правообладателем какого-либо представленного материала и не желаете, чтобы ссылка на него находилась в нашем каталоге, свяжитесь с нами, и мы незамедлительно удалим ее. Файлы для обмена на трекере предоставлены пользователями сайта, и администрация не несет ответственности за их содержание. Просьба не заливать файлы, защищенные авторскими правами, а также файлы нелегального содержания!