***Уважаемые пользователи и гости !!! Сайт переехал на новый домен Torrents-club.info. Просьба изменить ваши закладки! ***
 
[ Сегодня идет свободное скачивание без начисления Download ]


Статистика раздачи
Нет
 
   
 
 
 
 
Три богатыря и Морской царь (2016) WEB-DLRip Страна: Россия
Год выпуска: 2016
Жанр: Мультфильм, комедия, приключения
Озвучивание: Не треуется (русский) [iTunes]
Субтитры: Нет
Продолжительность: 01:13:37-Режиссер: Константин Феоктистов-В ролях: Сергей Маковецкий, Дмитрий Высоцкий, Олег Куликович, Валерий Соловьев, Дмитрий Быковский-Ромашов, Лия Медведева-Сюжет фильма: У богатырей семейные неурядицы. Чтобы развеяться, они решают по-быстрому сгонять в Китай за зубом дракона, символом мудрости и силы. В это же время князь Киевский отправляется на прогулку вместе с конем Юлием за сокровищами морского царя, чтобы пополнить казну и «залатать бюджет». Да вот только морской царь решил жениться и для этого утопил Киев. И как теперь быть? Что поможет нашим героям? Дружба, смелость и, конечно, любовь.- -Формат: AVI
Качество: WEB-DLRip-Видео: кодек: XviD, размер кадра: 720x384, битрейт: 2266 Кбит/сек frame rate: 25.000 кадра/сек
Аудио:язык: Русский, кодек: AC-3, число каналов: 6 каналов, битрейт: 384 кб/с -

MI

General
Complete name                  : Tri.bogatyirya.i.Morskoy.tsar.2016.WEB-DLRip.1.37Gb.[mgt].avi
Format                         : AVI
Format/Info                    : Audio Video Interleave
File size                      : 1.37 GiB
Duration                       : 1h 13mn
Overall bit rate               : 2 658 Kbps
Video
ID                             : 0
Format                         : MPEG-4 Visual
Format profile                 : Advanced Simple@L5
Format settings, BVOP          : 1
Format settings, QPel          : No
Format settings, GMC           : No warppoints
Format settings, Matrix        : Custom
Codec ID                       : XVID
Codec ID/Hint                  : XviD
Duration                       : 1h 13mn
Bit rate                       : 2 266 Kbps
Width                          : 704 pixels
Height                         : 384 pixels
Display aspect ratio           : 1.85:1
Frame rate                     : 25.000 fps
Color space                    : YUV
Chroma subsampling             : 4:2:0
Bit depth                      : 8 bits
Scan type                      : Progressive
Compression mode               : Lossy
Bits/(Pixel*Frame)             : 0.335
Stream size                    : 1.17 GiB (85%)
Writing library                : XviD 73
Audio
ID                             : 1
Format                         : AC-3
Format/Info                    : Audio Coding 3
Mode extension                 : CM (complete main)
Format settings, Endianness    : Big
Codec ID                       : 2000
Duration                       : 1h 13mn
Bit rate mode                  : Constant
Bit rate                       : 384 Kbps
Channel(s)                     : 6 channels
Channel positions              : Front: L C R, Side: L R, LFE
Sampling rate                  : 48.0 KHz
Frame rate                     : 31.250 fps (1536 spf)
Compression mode               : Lossy
Stream size                    : 202 MiB (14%)
Alignment                      : Aligned on interleaves
Interleave, duration           : 64 ms (1.60 video frames)
Interleave, preload duration   : 192 ms
Title                          : iTunes

Скриншоты




[Цитировать]

где у него кнопка?

[Цитировать]

75598где у него кнопка?
Какая кнопка?

[Цитировать]

Mi1o, Не работае
75599Какая кнопка?
Кнопка "скачать" не работает. Наверное пока релиз на "перемодерации"... Ещё не разобрался во всех ньюансах.

[Цитировать]

[Цитировать]

75602Mi1o, Не работае
75599Какая кнопка?
Кнопка "скачать" не работает. Наверное пока релиз на "перемодерации"... Ещё не разобрался во всех ньюансах.

Тык

[Цитировать]

ага тык и вышел -бздык. ладно-вечером ещё тыкну.

[Цитировать]

Mi1o, Ну так она и не работает...

[Цитировать]



Показать сообщения:    

Текущее время: 19-Июн 06:06

Часовой пояс: UTC + 6


Вы не можете начинать темы
Вы не можете отвечать на сообщения
Вы не можете редактировать свои сообщения
Вы не можете удалять свои сообщения
Вы не можете голосовать в опросах
Вы не можете прикреплять файлы к сообщениям
Вы не можете скачивать файлы

!ВНИМАНИЕ!
Сайт не предоставляет электронные версии произведений, а занимается лишь коллекционированием и каталогизацией ссылок, присылаемых и публикуемых на форуме нашими читателями. Если вы являетесь правообладателем какого-либо представленного материала и не желаете, чтобы ссылка на него находилась в нашем каталоге, свяжитесь с нами, и мы незамедлительно удалим ее. Файлы для обмена на трекере предоставлены пользователями сайта, и администрация не несет ответственности за их содержание. Просьба не заливать файлы, защищенные авторскими правами, а также файлы нелегального содержания!