***Уважаемые пользователи и гости !!! Сайт переехал на новый домен Torrents-club.info. Просьба изменить ваши закладки! ***
 
[ Сегодня идет свободное скачивание без начисления Download ]


Статистика раздачи
Нет
 
   
 
 
 
 
Бэтмен: Начало / Batman Begins (2005) BDRip 1080p Информация о фильме
Название: Бэтмен: Начало
Оригинальное название: Batman Begins
Год выхода: 2005
Жанр: боевик, триллер, драма, криминал
Режиссер: Кристофер Нолан
В ролях: Кристиан Бэйл, Кэти Холмс, Майкл Кейн, Киллиан Мёрфи, Том Уилкинсон, Лиам Нисон, Кен Ватанабе, Гари Олдман, Морган Фриман, Рутгер Хауэр
О фильме: История о происхождении легенды Брюса Уэйна, юного наследника огромного состояния, потерявшего своих родителей. Покинув родной Готэм, он отправляется в путешествие по миру. Многочисленные преграды и лишения закаляют его характер, а мудрый наставник помогает вновь обрести смысл жизни.
Легендарный герой, защитник слабых и борец с несправедливостью преображается у тебя на глазах. Вернувшись в Готэм, Бэтмен становится единственной преградой на пути у сил зла, готовых ввергнуть город во мрак беззакония…

Выпущено: Warner Bros. Pictures
Продолжительность: 02:20:03
Перевод: Дублированный (лицензия)
Файл
Кодек: x264
Качество: BDRip (источник: Blu-ray Disc)
Видео: 1920x800 (2,40:1), 23.976 fps, 6655 kbps
Аудио #1: AC-3, 6 ch, 640 kbps (Rus)
Аудио #2: AC-3, 6 ch, 640 kbps (Eng)
Субтитры: Русские, Английские
Скачать: сэмпл

MI

Общее
Уникальный идентификатор : 175531654672086064814237281104573743012 (0x840E2ABFFE36AC5AB97E3470CBFFBFA4)
Полное имя : Batman.Begins.2005.BDRip.1080p.Rus.Eng.mkv
Формат : Matroska
Версия формата : Version 2
Размер файла : 7,76 Гбайт
Продолжительность : 2 ч. 20 м.
Общий поток : 7936 Кбит/сек
Название фильма : Бэтмен: Начало / Batman Begins (2005)
Дата кодирования : UTC 2012-07-13 07:41:13
Программа кодирования : mkvmerge v5.5.0 ('Healer') built on Apr 6 2012 21:43:24
Библиотека кодирования : libebml v1.2.3 + libmatroska v1.3.0
Видео
Идентификатор : 1
Формат : AVC
Формат/Информация : Advanced Video Codec
Профиль формата : High@L4.1
Параметр CABAC формата : Да
Параметр ReFrames формата : 5 кадров
Идентификатор кодека : V_MPEG4/ISO/AVC
Продолжительность : 2 ч. 20 м.
Битрейт : 6655 Кбит/сек
Ширина : 1920 пикселей
Высота : 800 пикселей
Соотношение сторон : 2,40:1
Частота кадров : 23,976 кадра/сек
Цветовое пространство : YUV
Субдискретизация насыщенности : 4:2:0
Битовая глубина : 8 бит
Тип развёртки : Прогрессивная
Бит/(Пиксели*Кадры) : 0.181
Размер потока : 6,36 Гбайт (82%)
Заголовок : Release by AlexKa
Библиотека кодирования : x264 core 125 r2200 999b753
Настройки программы : cabac=1 / ref=5 / deblock=1:-3:-3 / analyse=0x3:0x133 / me=umh / subme=11 / psy=1 / psy_rd=1.10:0.10 / mixed_ref=1 / me_range=32 / chroma_me=1 / trellis=2 / 8x8dct=1 / cqm=0 / deadzone=21,11 / fast_pskip=0 / chroma_qp_offset=-3 / threads=12 / lookahead_threads=2 / sliced_threads=0 / nr=0 / decimate=0 / interlaced=0 / bluray_compat=0 / constrained_intra=0 / bframes=5 / b_pyramid=2 / b_adapt=2 / b_bias=0 / direct=3 / weightb=1 / open_gop=0 / weightp=2 / keyint=240 / keyint_min=23 / scenecut=40 / intra_refresh=0 / rc_lookahead=60 / rc=2pass / mbtree=1 / bitrate=6655 / ratetol=1.0 / qcomp=0.60 / qpmin=0 / qpmax=69 / qpstep=4 / cplxblur=20.0 / qblur=0.5 / ip_ratio=1.40 / aq=1:1.00
Язык : English
Аудио #1
Идентификатор : 2
Формат : AC-3
Формат/Информация : Audio Coding 3
Расширение режима : CM (complete main)
Идентификатор кодека : A_AC3
Продолжительность : 2 ч. 20 м.
Вид битрейта : Постоянный
Битрейт : 640 Кбит/сек
Каналы : 6 каналов
Расположение каналов : Front: L C R, Side: L R, LFE
Частота : 48,0 КГц
Битовая глубина : 16 бит
Метод сжатия : С потерями
Размер потока : 641 Мбайт (8%)
Заголовок : Rus
Язык : Russian
Аудио #2
Идентификатор : 3
Формат : AC-3
Формат/Информация : Audio Coding 3
Расширение режима : CM (complete main)
Идентификатор кодека : A_AC3
Продолжительность : 2 ч. 20 м.
Вид битрейта : Постоянный
Битрейт : 640 Кбит/сек
Каналы : 6 каналов
Расположение каналов : Front: L C R, Side: L R, LFE
Частота : 48,0 КГц
Битовая глубина : 16 бит
Метод сжатия : С потерями
Размер потока : 641 Мбайт (8%)
Заголовок : Eng
Язык : English
Текст #1
Идентификатор : 4
Формат : UTF-8
Идентификатор кодека : S_TEXT/UTF8
Идентификатор кодека/Информация : UTF-8 Plain Text
Заголовок : Rus
Язык : Russian
Текст #2
Идентификатор : 5
Формат : UTF-8
Идентификатор кодека : S_TEXT/UTF8
Идентификатор кодека/Информация : UTF-8 Plain Text
Заголовок : Eng
Язык : English
Меню
00:00:00.000 : en:You're Practice
00:03:39.100 : en:More Than Just a Man
00:07:31.133 : en:What Do You Fear?
00:11:33.367 : en:Tragedy
00:16:14.667 : en:The Will to Act
00:19:43.067 : en:This House
00:24:17.768 : en:Not One of Your Good People
00:28:23.202 : en:Carmine Falcone
00:31:23.702 : en:Embrace Your Fear
00:35:51.835 : en:Gotham Must Be Destroyed
00:38:22.335 : en:Monastery Mayhem
00:41:12.535 : en:Incorruptible Symbol
00:43:05.469 : en:Nest of Bats
00:46:55.303 : en:Welcome Home
00:49:40.904 : en:Applied Sciences
00:53:23.071 : en:Gordon's Visitor
00:55:52.071 : en:Does It Come in Black?
00:57:58.972 : en:Secrets of Scary People
01:03:28.439 : en:Rattle the Cages
01:05:49.040 : en:Missing Weapon
01:08:35.040 : en:More Inside
01:11:21.707 : en:Crane's Mask
01:13:15.041 : en:Do I Look Like a Cop?
01:15:04.208 : en:Lighten Up
01:19:46.109 : en:Work to Do
01:23:49.576 : en:Arkham's Basement Secrets
01:28:57.676 : en:Winged Backup
01:32:31.243 : en:Tumbler on the Roof
01:37:43.276 : en:The Monster of Yours
01:40:27.743 : en:Dual Identities
01:45:03.243 : en:Purging Fire
01:49:25.577 : en:Inferno Rescue
01:51:22.744 : en:Spread the Word: Panic
01:54:42.712 : en:What Defines Me
01:58:04.112 : en:Catching a Train
02:01:48.212 : en:Not Kill But Not Save
02:04:53.879 : en:New Owner
02:05:59.646 : en:This Is Your Mask
02:09:10.980 : en:Calling Card
02:10:49.447 : en:End Credits

x264

x264 [info]: frame I:2069 Avg QP:15.44 size:128148
x264 [info]: frame P:51310 Avg QP:18.40 size: 57870
x264 [info]: frame B:148088 Avg QP:19.65 size: 25349

[Цитировать]



Показать сообщения:    

Текущее время: 16-Май 07:59

Часовой пояс: UTC + 6


Вы не можете начинать темы
Вы не можете отвечать на сообщения
Вы не можете редактировать свои сообщения
Вы не можете удалять свои сообщения
Вы не можете голосовать в опросах
Вы не можете прикреплять файлы к сообщениям
Вы не можете скачивать файлы

!ВНИМАНИЕ!
Сайт не предоставляет электронные версии произведений, а занимается лишь коллекционированием и каталогизацией ссылок, присылаемых и публикуемых на форуме нашими читателями. Если вы являетесь правообладателем какого-либо представленного материала и не желаете, чтобы ссылка на него находилась в нашем каталоге, свяжитесь с нами, и мы незамедлительно удалим ее. Файлы для обмена на трекере предоставлены пользователями сайта, и администрация не несет ответственности за их содержание. Просьба не заливать файлы, защищенные авторскими правами, а также файлы нелегального содержания!