***Уважаемые пользователи и гости !!! Сайт переехал на новый домен Torrents-club.info. Просьба изменить ваши закладки! ***
 
[ Сегодня идет свободное скачивание без начисления Download ]


Статистика раздачи
Нет
 
   
 
 
 
 
Терминатор 2: Судный день / Terminator 2: Judgment Day (1991) BDRip 1080p Информация о фильме
Название: Терминатор 2: Судный день
Оригинальное название: Terminator 2: Judgment Day
Год выхода: 1991
Жанр: фантастика, боевик, триллер
Режиссер: Джеймс Кэмерон
В ролях: Арнольд Шварценеггер, Линда Хэмилтон, Эдвард Ферлонг, Роберт Патрик, Эрл Боэн, Джо Мортон, С. Эпата Меркерсон, Кастуло Герра, Дэнни Кукси, Дженетт Голдстин
О фильме: Прошло более десяти лет с тех пор, как киборг-терминатор из 2029 года пытался уничтожить Сару Коннор — женщину, чей будущий сын выиграет войну человечества против машин.
Теперь у Сары родился сын Джон и время, когда он поведёт за собой выживших людей на борьбу с машинами, неумолимо приближается. Именно в этот момент из постапокалиптического будущего прибывает новый терминатор — практически неуязвимый и способный принимать любое обличье. Цель нового терминатора уже не Сара, а уничтожение молодого Джона Коннора.
Однако шансы Джона на спасение существенно повышаются, когда на помощь приходит перепрограммированный сопротивлением терминатор предыдущего поколения. Оба киборга вступают в смертельный бой, от исхода которого зависит судьба человечества.

Выпущено: Carolco Pictures
Продолжительность: 02:32:40
Перевод: Многоголосый закадровый (Позитив-Мультимедиа, Киномания) + Оригинал
Файл
Кодек: x264
Качество: BDRip (источник: Blu-ray Disc)
Видео: 1920x816 (2,35:1), 23.976 fps, 8920 kbps
Аудио #1: AC-3, 6 ch, 640 kbps (Многоголосый закадровый, Позитив-Мультимедиа)
Аудио #2: AC-3, 6 ch, 640 kbps (Многоголосый закадровый, Киномания)
Аудио #3: AC-3, 6 ch, 640 kbps (Original)
Субтитры: Русские, Английские
Скачать: сэмпл
Скриншоты

MI

Общее
Уникальный идентификатор : 226231000094032052722377563061925389555 (0xAA3281785F297EB0BD9C38B15AE724F3)
Полное имя : Terminator.2.Judgment.Day.DC.NLT.1991.BDRip.1080p.Rus.Eng.mkv
Формат : Matroska
Версия формата : Version 2
Размер файла : 11,6 Гбайт
Продолжительность : 2 ч. 32 м.
Общий поток : 10,8 Мбит/сек
Название фильма : Терминатор 2: Судный день / Terminator 2: Judgment Day (1991) | Director's Cut | New Lionsgate Transfer
Дата кодирования : UTC 2015-08-23 12:05:10
Программа кодирования : mkvmerge v5.8.0 ('No Sleep / Pillow') built on Sep 2 2012 15:37:04
Библиотека кодирования : libebml v1.2.3 + libmatroska v1.3.0
Видео
Идентификатор : 1
Формат : AVC
Формат/Информация : Advanced Video Codec
Профиль формата : High@L4.1
Параметр CABAC формата : Да
Параметр ReFrames формата : 5 кадров
Идентификатор кодека : V_MPEG4/ISO/AVC
Продолжительность : 2 ч. 32 м.
Битрейт : 8920 Кбит/сек
Ширина : 1920 пикселей
Высота : 816 пикселей
Соотношение сторон : 2,35:1
Режим частоты кадров : Постоянный
Частота кадров : 23,976 кадра/сек
Цветовое пространство : YUV
Субдискретизация насыщенности : 4:2:0
Битовая глубина : 8 бит
Тип развёртки : Прогрессивная
Бит/(Пиксели*Кадры) : 0.237
Размер потока : 9,28 Гбайт (80%)
Заголовок : Release by AlexKa
Библиотека кодирования : x264 core 148 r2579 73ae2d1
Настройки программы : cabac=1 / ref=5 / deblock=1:-3:-3 / analyse=0x3:0x133 / me=umh / subme=11 / psy=1 / psy_rd=1.00:0.10 / mixed_ref=1 / me_range=32 / chroma_me=1 / trellis=2 / 8x8dct=1 / cqm=0 / deadzone=21,11 / fast_pskip=0 / chroma_qp_offset=-3 / threads=12 / lookahead_threads=3 / sliced_threads=0 / nr=0 / decimate=0 / interlaced=0 / bluray_compat=0 / constrained_intra=0 / bframes=11 / b_pyramid=2 / b_adapt=2 / b_bias=0 / direct=3 / weightb=1 / open_gop=0 / weightp=2 / keyint=240 / keyint_min=23 / scenecut=40 / intra_refresh=0 / rc=2pass / mbtree=0 / bitrate=8920 / ratetol=1.0 / qcomp=0.60 / qpmin=0 / qpmax=69 / qpstep=4 / cplxblur=20.0 / qblur=0.5 / ip_ratio=1.40 / pb_ratio=1.30 / aq=1:0.80
Язык : English
Аудио #1
Идентификатор : 2
Формат : AC-3
Формат/Информация : Audio Coding 3
Расширение режима : CM (complete main)
Параметр Endianness формата : Big
Идентификатор кодека : A_AC3
Продолжительность : 2 ч. 32 м.
Вид битрейта : Постоянный
Битрейт : 640 Кбит/сек
Каналы : 6 каналов
Расположение каналов : Front: L C R, Side: L R, LFE
Частота : 48,0 КГц
Метод сжатия : С потерями
Размер потока : 699 Мбайт (6%)
Заголовок : Многоголосый закадровый, Позитив-Мультимедиа
Язык : Russian
Аудио #2
Идентификатор : 3
Формат : AC-3
Формат/Информация : Audio Coding 3
Расширение режима : CM (complete main)
Параметр Endianness формата : Big
Идентификатор кодека : A_AC3
Продолжительность : 2 ч. 32 м.
Вид битрейта : Постоянный
Битрейт : 640 Кбит/сек
Каналы : 6 каналов
Расположение каналов : Front: L C R, Side: L R, LFE
Частота : 48,0 КГц
Метод сжатия : С потерями
Размер потока : 699 Мбайт (6%)
Заголовок : Многоголосый закадровый, Киномания
Язык : Russian
Аудио #3
Идентификатор : 4
Формат : AC-3
Формат/Информация : Audio Coding 3
Расширение режима : CM (complete main)
Параметр Endianness формата : Big
Идентификатор кодека : A_AC3
Продолжительность : 2 ч. 32 м.
Вид битрейта : Постоянный
Битрейт : 640 Кбит/сек
Каналы : 6 каналов
Расположение каналов : Front: L C R, Side: L R, LFE
Частота : 48,0 КГц
Метод сжатия : С потерями
Размер потока : 699 Мбайт (6%)
Заголовок : Original
Язык : English
Текст #1
Идентификатор : 5
Формат : UTF-8
Идентификатор кодека : S_TEXT/UTF8
Идентификатор кодека/Информация : UTF-8 Plain Text
Заголовок : Rus
Язык : Russian
Текст #2
Идентификатор : 6
Формат : UTF-8
Идентификатор кодека : S_TEXT/UTF8
Идентификатор кодека/Информация : UTF-8 Plain Text
Заголовок : Eng
Язык : English
Меню
00:00:00.000 : en:Prologue
00:00:50.091 : en:Future War
00:03:36.299 : en:Maint Titles
00:05:34.959 : en:A Terminator Arrives
00:06:46.405 : en:Biker Bar
00:09:09.215 : en:Bad to the Bone
00:10:31.547 : en:T-1000 Arrives
00:12:29.498 : en:Meet John Conner
00:13:37.107 : en:Sarah Conner
00:15:29.720 : en:Ain't No Trouble
00:16:29.887 : en:T-1000 Visits Voights
00:17:39.272 : en:Easy Money
00:19:10.101 : en:Not Much Time Time Left in the World
00:22:27.173 : en:Sanity Review
00:25:54.405 : en:Cyberdyne Systems
00:27:27.915 : en:Model Citizen
00:28:51.123 : en:Target Acquired
00:29:44.593 : en:The Galleria
00:31:20.981 : en:Zeroed in the Corridor
00:33:57.513 : en:In the Streets
00:35:08.167 : en:Canal Chase
00:38:48.261 : en:Time Out
00:41:31.432 : en:Never This Nice
00:44:14.041 : en:T-1000's Search
00:44:43.904 : en:Photos
00:45:59.260 : en:Mission Parameters
00:49:45.820 : en:Pescadero State Hospital
00:52:57.303 : en:Lewis the Guard
00:54:41.865 : en:Sarah Breaks Out
00:56:19.505 : en:215 Bones
00:57:02.881 : en:I Swear
00:58:11.867 : en:A Syringe-Point
01:00:21.788 : en:"Come with Me If You Want to Live"
01:01:49.251 : en:Escape From Pescadero
01:06:22.482 : en:Security Car
01:07:57.744 : en:Nice Bike
01:08:38.660 : en:Night Repairs
01:10:01.522 : en:Resetting the Switch
01:13:27.748 : en:Heading South
01:14:06.286 : en:No Problemo
01:14:56.044 : en:Smile?
01:16:24.036 : en:Detailed Files
01:18:46.315 : en:Meet the Pilot
01:21:06.830 : en:Salceda's Camp
01:23:36.377 : en:Weapons Cache
01:26:22.901 : en:Fathers and Sons
01:30:43.142 : en:Nuclear Nightmare
01:33:00.112 : en:Sarah's Decision
01:33:30.392 : en:No Fate
01:35:13.469 : en:Sarah's Solution
01:41:32.795 : en:Changing the Way It Goes
01:44:21.839 : en:Target: Cyberdyne
01:46:23.336 : en:All the Way
01:48:23.456 : en:T-1000 at Dyson's
01:49:03.099 : en:A Lot of Years
01:49:53.691 : en:Company
01:52:01.806 : en:Terminator Serves Notice
01:53:50.999 : en:In the Vault
01:54:23.531 : en:S.W.A.T. Offensive
01:56:44.672 : en:Death of Dyson and Cyberdyne
01:58:15.930 : en:"I'll Be Back"
01:59:56.114 : en:Borrowing the S.W.A.T. Van
02:01:08.728 : en:T-1000 Acquires a Helicopter
02:02:07.328 : en:Freeway Chase
02:04:46.278 : en:Tanker Chase
02:08:51.065 : en:Fire and Ice
02:12:20.339 : en:Glitching
02:12:59.670 : en:Sticking Together
02:13:32.828 : en:Hand to Hand
02:14:42.564 : en:Deepter Into the Steel Mill
02:15:17.683 : en:Sarahs' Stand
02:17:14.133 : en:Terminator Skewered
02:19:13.961 : en:Sarah and John
02:19:46.576 : en:Alternate Power
02:20:22.404 : en:Two Sarah's
02:21:53.037 : en:Terminated
02:24:06.253 : en:One More Chip
02:27:57.234 : en:The Unknown Future
02:28:39.902 : en:End Titles
02:28:54.477 : en:Restoration Credits

x264

x264 [info]: frame I:1230 Avg QP:18.84 size:141089
x264 [info]: frame P:52253 Avg QP:21.71 size: 70341
x264 [info]: frame B:166146 Avg QP:23.53 size: 38288
x264 [info]: consecutive B-frames: 2.7% 4.5% 13.3% 18.2% 15.4% 38.0% 3.6% 1.2% 1.3% 0.8% 0.7% 0.3%

BD LIONSGATE | BD DC | BD SKYNET

[Цитировать]



Показать сообщения:    

Текущее время: 06-Май 13:46

Часовой пояс: UTC + 6


Вы не можете начинать темы
Вы не можете отвечать на сообщения
Вы не можете редактировать свои сообщения
Вы не можете удалять свои сообщения
Вы не можете голосовать в опросах
Вы не можете прикреплять файлы к сообщениям
Вы не можете скачивать файлы

!ВНИМАНИЕ!
Сайт не предоставляет электронные версии произведений, а занимается лишь коллекционированием и каталогизацией ссылок, присылаемых и публикуемых на форуме нашими читателями. Если вы являетесь правообладателем какого-либо представленного материала и не желаете, чтобы ссылка на него находилась в нашем каталоге, свяжитесь с нами, и мы незамедлительно удалим ее. Файлы для обмена на трекере предоставлены пользователями сайта, и администрация не несет ответственности за их содержание. Просьба не заливать файлы, защищенные авторскими правами, а также файлы нелегального содержания!