***Уважаемые пользователи и гости !!! Сайт переехал на новый домен Torrents-club.info. Просьба изменить ваши закладки! ***
 
[ Сегодня идет свободное скачивание без начисления Download ]


Статистика раздачи
Нет
 
   
 
 
 
Electric Light Orchestra - ELO's Greatest Hits (1979) Remaster, 1988, Epic Records - Год: 1979
Жанр: Rock
Издание: Epic - 450357 2
Продолжительность: 00:44:35
Наличие сканов в раздаче: Да
Источник (релизер): Собственный рип
Ссылка: Discogs
Кодек: FLAC
Битрейт: Lossless
Тип рипа: image + .cue
Треклист:
01. Evil Woman (04:14)
02. Livin' Thing (03:34)
03. Can't Get It Out Of My Head (04:24)
04. Showdown (03:55)
05. Turn To Stone (03:49)
06. Rockaria (03:16)
07. Sweet Talkin' Woman (03:49)
08. Telephone Line (04:40)
09. Ma Ma Ma Belle (03:37)
10. Strange Magic (04:09)
11. Mr Blue Sky (05:05)

Отчёт EAC:

Exact Audio Copy V1.2 from 12. August 2016
EAC extraction logfile from 2. February 2017, 9:40
Electric Light Orchestra / ELO's Greatest Hits
Used drive : HL-DT-STDVDRAM GH20NS10 Adapter: 1 ID: 0
Read mode : Secure
Utilize accurate stream : Yes
Defeat audio cache : Yes
Make use of C2 pointers : No
Read offset correction : 667
Overread into Lead-In and Lead-Out : No
Fill up missing offset samples with silence : Yes
Delete leading and trailing silent blocks : No
Null samples used in CRC calculations : Yes
Used interface : Native Win32 interface for Win NT & 2000
Used output format : User Defined Encoder
Selected bitrate : 768 kBit/s
Quality : High
Add ID3 tag : No
Command line compressor : C:\Program Files (x86)\Exact Audio Copy\Flac\flac.exe
Additional command line options : -8 -V -T "TITLE=%title%" -T "ARTIST=%artist%" -T "ALBUMARTIST=%albumartist%" -T "ALBUM=%albumtitle%" -T "DATE=%year%" -T "TRACKNUMBER=%tracknr%" -T "TRACKTOTAL=%numtracks%" -T "GENRE=%genre%" -T "COMMENT=%comment%" -T "PERFORMER=%albuminterpret%" -T "COMPOSER=%composer%" %source% -o %dest%
TOC of the extracted CD
Track | Start | Length | Start sector | End sector
---------------------------------------------------------
1 | 0:00.00 | 4:14.10 | 0 | 19059
2 | 4:14.10 | 3:34.20 | 19060 | 35129
3 | 7:48.30 | 4:24.60 | 35130 | 54989
4 | 12:13.15 | 3:55.12 | 54990 | 72626
5 | 16:08.27 | 3:49.23 | 72627 | 89824
6 | 19:57.50 | 3:16.12 | 89825 | 104536
7 | 23:13.62 | 3:49.40 | 104537 | 121751
8 | 27:03.27 | 4:40.48 | 121752 | 142799
9 | 31:44.00 | 3:37.05 | 142800 | 159079
10 | 35:21.05 | 4:09.20 | 159080 | 177774
11 | 39:30.25 | 5:05.35 | 177775 | 200684
Range status and errors
Selected range
Filename F:\krokradio\Electric Light Orchestra - ELO's Greatest Hits [NNMClub]\Electric Light Orchestra - ELO's Greatest Hits.wav
Peak level 94.9 %
Extraction speed 7.3 X
Range quality 100.0 %
Test CRC E8A3F0D8
Copy CRC E8A3F0D8
Copy OK
No errors occurred
AccurateRip summary
Track 1 accurately ripped (confidence 97) [FA82B643] (AR v2)
Track 2 accurately ripped (confidence 96) [3CF0CE5B] (AR v2)
Track 3 accurately ripped (confidence 96) [E1866020] (AR v2)
Track 4 accurately ripped (confidence 95) [C0E848EC] (AR v2)
Track 5 accurately ripped (confidence 96) [C7C50656] (AR v2)
Track 6 accurately ripped (confidence 92) [D6927685] (AR v2)
Track 7 accurately ripped (confidence 96) [3E3CDFB1] (AR v2)
Track 8 accurately ripped (confidence 94) [246375DA] (AR v2)
Track 9 accurately ripped (confidence 93) [4848F7B3] (AR v2)
Track 10 accurately ripped (confidence 96) [FBCCC841] (AR v2)
Track 11 accurately ripped (confidence 96) [16A25357] (AR v2)
All tracks accurately ripped
End of status report
---- CUETools DB Plugin V2.1.6
[CTDB TOCID: Ar2So4Vf.JnEFMwdHEjV5ED216A-] found
Submit result: Ar2So4Vf.JnEFMwdHEjV5ED216A- has been confirmed
Track | CTDB Status
1 | (388/390) Accurately ripped
2 | (388/390) Accurately ripped
3 | (388/390) Accurately ripped
4 | (387/390) Accurately ripped
5 | (383/390) Accurately ripped
6 | (383/390) Accurately ripped
7 | (387/390) Accurately ripped
8 | (336/390) Accurately ripped, or (49/390) differs in 15 samples @02:06:60-02:06:63,02:08:03
9 | (386/390) Accurately ripped
10 | (386/390) Accurately ripped
11 | (384/390) Accurately ripped
==== Log checksum 6E1D6290F98FDFADD808E7B114E17DB8F7F0A7CF5D5F1CC1745D1D4774AAF608 ====

Cue Sheet (.cue):

REM DATE 1979
REM DISCID 930A730B
REM COMMENT "ExactAudioCopy v1.2"
PERFORMER "Electric Light Orchestra"
TITLE "ELO's Greatest Hits"
REM COMPOSER ""
FILE "Electric Light Orchestra - ELO's Greatest Hits.flac" WAVE
TRACK 01 AUDIO
TITLE "Evil Woman"
PERFORMER "Electric Light Orchestra"
REM COMPOSER ""
INDEX 01 00:00:00
TRACK 02 AUDIO
TITLE "Livin' Thing"
PERFORMER "Electric Light Orchestra"
REM COMPOSER ""
INDEX 00 04:12:10
INDEX 01 04:14:10
TRACK 03 AUDIO
TITLE "Can’t Get It Out of My Head"
PERFORMER "Electric Light Orchestra"
REM COMPOSER ""
INDEX 00 07:46:25
INDEX 01 07:48:30
TRACK 04 AUDIO
TITLE "Showdown"
PERFORMER "Electric Light Orchestra"
REM COMPOSER ""
INDEX 00 12:11:67
INDEX 01 12:13:15
TRACK 05 AUDIO
TITLE "Turn to Stone"
PERFORMER "Electric Light Orchestra"
REM COMPOSER ""
INDEX 00 16:06:70
INDEX 01 16:08:27
TRACK 06 AUDIO
TITLE "Rockaria"
PERFORMER "Electric Light Orchestra"
REM COMPOSER ""
INDEX 00 19:56:60
INDEX 01 19:57:50
TRACK 07 AUDIO
TITLE "Sweet Talkin' Woman"
PERFORMER "Electric Light Orchestra"
REM COMPOSER ""
INDEX 00 23:11:60
INDEX 01 23:13:62
TRACK 08 AUDIO
TITLE "Telephone Line"
PERFORMER "Electric Light Orchestra"
REM COMPOSER ""
INDEX 00 27:01:45
INDEX 01 27:03:27
TRACK 09 AUDIO
TITLE "Ma Ma Ma Belle"
PERFORMER "Electric Light Orchestra"
REM COMPOSER ""
INDEX 00 31:42:12
INDEX 01 31:44:00
TRACK 10 AUDIO
TITLE "Strange Magic"
PERFORMER "Electric Light Orchestra"
REM COMPOSER ""
INDEX 00 35:19:50
INDEX 01 35:21:05
TRACK 11 AUDIO
TITLE "Mr Blue Sky"
PERFORMER "Electric Light Orchestra"
REM COMPOSER ""
INDEX 00 39:29:02
INDEX 01 39:30:25

Отчёт auCDtect Task manager:

-----------------------
DON'T MODIFY THIS FILE
-----------------------
PERFORMER: auCDtect Task Manager, ver. 1.6.0 RC1 build 1.6.0.1
Copyright (c) 2008-2010 y-soft. All rights reserved
http://y-soft.org
ANALYZER: auCDtect: CD records authenticity detector, version 0.8.2
Copyright (c) 2004 Oleg Berngardt. All rights reserved.
Copyright (c) 2004 Alexander Djourik. All rights reserved.
FILE: Electric Light Orchestra - ELO's Greatest Hits.flac
Size: 274415348 Hash: C0D8F8225EF915889DA6D910EBE41147 Accuracy: -m0
Conclusion: CDDA 100%
Signature: CF2ACA35E3DBFF63FDC0592F66E069291C03160A

[Цитировать]



Показать сообщения:    

Текущее время: 19-Июн 07:03

Часовой пояс: UTC + 6


Вы не можете начинать темы
Вы не можете отвечать на сообщения
Вы не можете редактировать свои сообщения
Вы не можете удалять свои сообщения
Вы не можете голосовать в опросах
Вы не можете прикреплять файлы к сообщениям
Вы не можете скачивать файлы

!ВНИМАНИЕ!
Сайт не предоставляет электронные версии произведений, а занимается лишь коллекционированием и каталогизацией ссылок, присылаемых и публикуемых на форуме нашими читателями. Если вы являетесь правообладателем какого-либо представленного материала и не желаете, чтобы ссылка на него находилась в нашем каталоге, свяжитесь с нами, и мы незамедлительно удалим ее. Файлы для обмена на трекере предоставлены пользователями сайта, и администрация не несет ответственности за их содержание. Просьба не заливать файлы, защищенные авторскими правами, а также файлы нелегального содержания!