***Уважаемые пользователи и гости !!! Сайт переехал на новый домен Torrents-club.info. Просьба изменить ваши закладки! ***
 
[ Сегодня идет свободное скачивание без начисления Download ]


Статистика раздачи
Нет
 
   
 
 
 
 
Шалопай / Mischief (1985) WEBRip 1080p Информация о фильме
Название: Шалопай
Оригинальное название: Mischief
Год выхода: 1985
Жанр: мелодрама, комедия
Режиссер: Мэл Дэмски / Mel Damski
В ролях: Даг МакКиэн, Катрин Мэри Стюарт, Келли Престон, Крис Нэш, Д.В. Браун, Джейми Герц, Маргарет Блай, Грэм Джарвис, Терри О’Куинн, Даррен Юинг...
О фильме: Неудачи Джонатана в общении с девушками отступают, когда он в последнем классе школы знакомится с Джином. Поскольку Джин пользуется успехом у девушек, он решает преподать Джонатану несколько уроков по общению с прекрасным полом. Но Джин вообще-то предпочёл бы жить в любви и согласии только с одной девушкой — Банни.

Страна: США
Студия: 20th Century Fox Film Corporation
Продолжительность: 01:36:47
Перевод : Профессиональный (двухголосый закадровый) НТВ+
Cубтитры : Английский
Контейнер: MKV
Качество: WEBRip 1080p
Видео: MPEG-4 AVC, High@L4, 12.5 Mb/s, 1 920 x 1 080, 23.976 fps
Аудио 1 : Русский (AC-3, 2ch, 192 kb/s, 48.0 KHz) DVO НТВ+
Аудио 2 : Английский (E-AC-3, 2ch, 224 kb/s, 48.0 KHz)
Субтитры : English SRT
Навигация по главам: есть
Глобальные тэги: есть

MI

Общее
Уникальный идентификатор : 216794838344737338052287650462162590970 (0xA3192AC6C82E71929AB82595F13D9CFA)
Полное имя : E:Шалопай Mischief (1985).mkv
Формат : Matroska
Версия формата : Version 4 / Version 2
Размер файла : 8,70 Гбайт
Продолжительность : 1 ч. 36 м.
Режим общего битрейта : Переменный
Общий поток : 12,9 Мбит/сек
Название фильма : Шал
Тип содержимого : Movie
Дата выпуска : 1985-02-08
Дата кодирования : UTC 2017-01-31 19:36:39
Программа кодирования : mkvmerge v9.8.0 ('Kuglblids') 64bit
Библиотека кодирования : libebml v1.3.4 + libmatroska v1.4.5
Обложка : Yes
Attachments : cover.jpg
ACTOR : Даг МакКиэн, Катрин Мэри Стюарт, Келли Престон, Крис Нэш, Д.В. Браун, Джейми Герц, Маргарет Блай, Грэм Джарвис, Терри О’Куинн, Даррен Юинг
ARTIST : Даг МакКиэн, Катрин Мэри Стюарт, Келли Престон, Крис Нэш, Д.В. Браун, Джейми Герц, Маргарет Блай, Грэм Джарвис, Терри О’Куинн, Даррен Юинг
DIRECTOR : Мэл Дэмски
GENRE : комедия, мелодрама
LAW_RATING : R
PRODUCER : Джир Хеншоу, Сэм Мэннерс, Майкл Нолин
PRODUCTION_STUDIO : 20th Century Fox
SCREENPLAY_BY : Ноэль Блэк
SYNOPSIS : Неудачи Джонатана в общении с девушками отступают, когда он в последнем классе школы знакомится с Джином. Поскольку Джин пользуется успехом у девушек, он решает преподать Джонатану несколько уроков по общению с прекрасным полом. Но Джин вообще-то предпочёл бы жить в любви и согласии только с одной девушкой — Банни.
Видео
Идентификатор : 1
Формат : AVC
Формат/Информация : Advanced Video Codec
Профиль формата : High@L4
Параметр CABAC формата : Да
Параметр ReFrames формата : 4 кадра
Идентификатор кодека : V_MPEG4/ISO/AVC
Продолжительность : 1 ч. 36 м.
Вид битрейта : Переменный
Битрейт : 12,5 Мбит/сек
Максимальный битрейт : 15,0 Мбит/сек
Ширина : 1920 пикселей
Высота : 1080 пикселей
Соотношение сторон : 16:9
Режим частоты кадров : Постоянный
Частота кадров : 23,976 (24000/1001) кадра/сек
Цветовое пространство : YUV
Субдискретизация насыщенности : 4:2:0
Битовая глубина : 8 бит
Тип развёртки : Прогрессивная
Бит/(Пиксели*Кадры) : 0.251
Размер потока : 8,42 Гбайт (97%)
Библиотека кодирования : x264 core 148 r2623 d5b2374
Настройки программы : cabac=1 / ref=4 / deblock=1:-1:-1 / analyse=0x3:0x133 / me=umh / subme=9 / psy=1 / psy_rd=1.00:0.15 / mixed_ref=1 / me_range=24 / chroma_me=1 / trellis=2 / 8x8dct=1 / cqm=0 / deadzone=21,11 / fast_pskip=1 / chroma_qp_offset=-3 / threads=34 / lookahead_threads=5 / sliced_threads=0 / nr=150 / decimate=1 / interlaced=0 / bluray_compat=0 / constrained_intra=0 / bframes=8 / b_pyramid=2 / b_adapt=2 / b_bias=0 / direct=3 / weightb=1 / open_gop=0 / weightp=2 / keyint=120 / keyint_min=61 / scenecut=0 / intra_refresh=0 / rc_lookahead=120 / rc=crf / mbtree=1 / crf=18.0 / qcomp=0.60 / qpmin=0 / qpmax=69 / qpstep=4 / vbv_maxrate=15000 / vbv_bufsize=31250 / crf_max=0.0 / nal_hrd=vbr / filler=0 / ip_ratio=1.40 / aq=3:1.00
Default : Да
Forced : Нет
Цветовой диапазон : Limited
Основные цвета : BT.709
Характеристики трансфера : BT.709
Коэффициенты матрицы : BT.709
Аудио #1
Идентификатор : 2
Формат : AC-3
Формат/Информация : Audio Coding 3
Расширение режима : CM (complete main)
Параметр Endianness формата : Big
Идентификатор кодека : A_AC3
Продолжительность : 1 ч. 36 м.
Вид битрейта : Постоянный
Битрейт : 192 Кбит/сек
Каналы : 2 канала
Расположение каналов : Front: L R
Частота : 48,0 КГц
Частота кадров : 31,250 кадров/сек (1536 spf)
Битовая глубина : 16 бит
Метод сжатия : С потерями
Размер потока : 133 Мбайт (1%)
Заголовок : DVO НТВ+
Язык : Russian
Default : Да
Forced : Нет
Аудио #2
Идентификатор : 3
Формат : E-AC-3
Формат/Информация : Enhanced Audio Coding 3
Параметр Endianness формата : Big
Идентификатор кодека : A_EAC3
Продолжительность : 1 ч. 36 м.
Вид битрейта : Постоянный
Битрейт : 224 Кбит/сек
Каналы : 2 канала
Расположение каналов : Front: L R
Частота : 48,0 КГц
Частота кадров : 187,500 кадров/сек (256 spf)
Метод сжатия : С потерями
Размер потока : 155 Мбайт (2%)
Язык : English
Default : Нет
Forced : Нет
Текст
Идентификатор : 4
Формат : UTF-8
Идентификатор кодека : S_TEXT/UTF8
Идентификатор кодека/Информация : UTF-8 Plain Text
Продолжительность : 1 ч. 36 м.
Битрейт : 62 бит/сек
Count of elements : 1324
Размер потока : 43,9 Кбайт (0%)
Заголовок : SRT
Язык : English
Default : Нет
Forced : Нет
Меню
00:00:00.000 : en:Chapter 01
00:06:24.984 : en:Chapter 02
00:09:23.462 : en:Chapter 03
00:13:32.138 : en:Chapter 04
00:20:01.585 : en:Chapter 05
00:25:31.596 : en:Chapter 06
00:30:15.517 : en:Chapter 07
00:41:27.634 : en:Chapter 08
00:46:41.544 : en:Chapter 09
00:55:37.102 : en:Chapter 10
01:05:15.956 : en:Chapter 11
01:10:38.333 : en:Chapter 12
01:15:27.051 : en:Chapter 13
01:20:39.209 : en:Chapter 14
01:29:43.902 : en:Chapter 15
01:33:51.994 : en:Chapter 16

Скриншоты

[Цитировать]



Показать сообщения:    

Текущее время: 06-Май 13:20

Часовой пояс: UTC + 6


Вы не можете начинать темы
Вы не можете отвечать на сообщения
Вы не можете редактировать свои сообщения
Вы не можете удалять свои сообщения
Вы не можете голосовать в опросах
Вы не можете прикреплять файлы к сообщениям
Вы не можете скачивать файлы

!ВНИМАНИЕ!
Сайт не предоставляет электронные версии произведений, а занимается лишь коллекционированием и каталогизацией ссылок, присылаемых и публикуемых на форуме нашими читателями. Если вы являетесь правообладателем какого-либо представленного материала и не желаете, чтобы ссылка на него находилась в нашем каталоге, свяжитесь с нами, и мы незамедлительно удалим ее. Файлы для обмена на трекере предоставлены пользователями сайта, и администрация не несет ответственности за их содержание. Просьба не заливать файлы, защищенные авторскими правами, а также файлы нелегального содержания!