***Уважаемые пользователи и гости !!! Сайт переехал на новый домен Torrents-club.info. Просьба изменить ваши закладки! ***
 
[ Сегодня идет свободное скачивание без начисления Download ]


Статистика раздачи
Нет
 
   
 
 
 
 
Расплата / The Accountant (2016) DVD9
«Calculate your choices»
Год выпуска: 2016
Производство: США / Warner Bros. Pictures, RatPac-Dune Entertainment, Electric City Entertainment, Zero Gravity Management
Жанр: Боевик, триллер, драма, криминал
Режиссер: Гэвин О’Коннор
Продюсеры: Марти П. Юинг, Стивен Мнучин, Гэвин О’Коннор
Актеры: Бен Аффлек, Анна Кендрик, Дж.К. Симмонс, Джон Бернтал, Джеффри Тэмбор, Синтия Аддай-Робинсон, Джон Литгоу, Джин Смарт, Энди Умбергер, Элисон Райт
Описание фильма:
Лента расскажет историю математического гения Кристиана Вульфа, который подрабатывает аудитором для самых опасных преступных организаций. Когда ему на хвост садится отдел по борьбе с преступностью Министерства финансов во главе с Рэем Кингом, Кристиан решает найти себе законопослушного клиента и проводит аудит в компании по производству новейшей робототехники, где сотрудница финансового отдела обнаружила «нестыковочку» в миллионы долларов. Но стоит Кристиану взяться за счета и выйти на след, как в деле начинают появляться жертвы.
Перевод: Профессиональный (полное дублирование) + Авторский (одноголосый, закадровый) [Д.Есарев, М.Яроцкий]
Субтитры: Английские, русские-Дата мировой премьеры: 13 октября 2016
Дата премьеры в России: 27 октября 2016, «Каро-Премьер»

-Продолжительность: 02:07:47
Качество видео: DVD9
Видео: MPEG-2, 720x480@853x480 (NTSC 16:9), ~6000 Кбит/сек
Аудио 1: AC3 5.1, 384 Кбит/сек [Английский - оригинал]
Аудио 2: AC3 5.1, 384 Кбит/сек [Английский - описательный]
Аудио 3: AC3 5.1, 448 Кбит/сек [Русский - дублированный]
Аудио 4: AC3 5.1, 448 Кбит/сек [Русский - одноголосый закадровый (Д.Есарев)]
Аудио 5: AC3 5.1, 448 Кбит/сек [Русский - одноголосый закадровый (М.Яроцкий)]
Доп. материалы: Внутри человека

DVDInfo:

Title: The Accountant (2016) DVD9 NTSC
Size: 7.36 Gb ( 7 719 260,00 KBytes ) - DVD-9
Enabled regions: 1, 2, 3, 4, 5, 6, 7, 8
VTS_01 :
Play Length: 02:07:47+00:00:00+00:00:00+00:10:38
Video: NTSC 16:9 (720x480) VBR, Auto Letterboxed
Audio:
English (Dolby AC3, 6 ch)
English (Dolby AC3, 6 ch)
Russian (Dolby AC3, 6 ch)
Russian (Dolby AC3, 6 ch)
Russian (Dolby AC3, 6 ch)
Subtitles:
English
Russian
Russian
VTS_02 :
Play Length: 00:00:11
Video: NTSC 16:9 (720x480) VBR, Auto Letterboxed
Audio:
Not specified (Dolby AC3, 6 ch)
Subtitles:
Not specified
* Menus Information *
VIDEO_TS Menu
Video:
NTSC 16:9 (720x480) VBR
Auto Letterboxed
Language Unit :
Title Menu
VTS_01 Menu
Video:
NTSC 16:9 (720x480) VBR
Auto Pan&Scan
Audio:
Not specified (Dolby AC3, 2 ch)
English Language Unit :
Root Menu
VTS_02 Menu
Video:
NTSC 4:3 (720x480) VBR
Auto Pan&Scan, Auto Letterboxed
Language Unit :
Root Menu

MediaInfo:

Общее
Полное имя : F:ВидеоThe Accountant (2016) DVD9 NTSCVIDEO_TSVTS_01_3.VOB
Формат : MPEG-PS
Размер файла : 1024 Мбайт
Продолжительность : 17 м.
Режим общего битрейта : Переменный
Общий поток : 8303 Кбит/сек
Видео
Идентификатор : 224 (0xE0)
Формат : MPEG Video
Версия формата : Version 2
Профиль формата : Main@Main
Параметр BVOP формата : Да
Параметр матрицы формата : Выборочная
Параметр GOP формата : Variable
Продолжительность : 17 м.
Вид битрейта : Переменный
Битрейт : 6026 Кбит/сек
Максимальный битрейт : 7500 Кбит/сек
Ширина : 720 пикселей
Высота : 480 пикселей
Соотношение сторон : 16:9
Частота кадров : 23,976 (24000/1001) кадра/сек
Цветовое пространство : YUV
Субдискретизация насыщенности : 4:2:0
Битовая глубина : 8 бит
Тип развёртки : Прогрессивная
Порядок развёртки : 2:3 Pulldown
Метод сжатия : С потерями
Бит/(Пиксели*Кадры) : 0.727
Временной код первого кадра : 01:37:10;00
Оригинал временного кода : Group of pictures header
GOP, открыто/закрыто : Закрыто
Размер потока : 743 Мбайт (73%)
Аудио #1
Идентификатор : 189 (0xBD)-128 (0x80)
Формат : AC-3
Формат/Информация : Audio Coding 3
Расширение режима : CM (complete main)
Параметр Endianness формата : Big
Режим смешивания : DVD-Video
Продолжительность : 17 м.
Вид битрейта : Постоянный
Битрейт : 384 Кбит/сек
Каналы : 6 каналов
Расположение каналов : Front: L C R, Side: L R, LFE
Частота : 48,0 КГц
Частота кадров : 31,250 кадров/сек (1536 spf)
Метод сжатия : С потерями
Задержка видео : -811 мс.
Размер потока : 47,4 Мбайт (5%)
Аудио #2
Идентификатор : 189 (0xBD)-129 (0x81)
Формат : AC-3
Формат/Информация : Audio Coding 3
Расширение режима : CM (complete main)
Параметр Endianness формата : Big
Режим смешивания : DVD-Video
Продолжительность : 17 м.
Вид битрейта : Постоянный
Битрейт : 384 Кбит/сек
Каналы : 6 каналов
Расположение каналов : Front: L C R, Side: L R, LFE
Частота : 48,0 КГц
Частота кадров : 31,250 кадров/сек (1536 spf)
Метод сжатия : С потерями
Задержка видео : -811 мс.
Размер потока : 47,4 Мбайт (5%)
Аудио #3
Идентификатор : 189 (0xBD)-130 (0x82)
Формат : AC-3
Формат/Информация : Audio Coding 3
Расширение режима : CM (complete main)
Параметр Endianness формата : Big
Режим смешивания : DVD-Video
Продолжительность : 17 м.
Вид битрейта : Постоянный
Битрейт : 448 Кбит/сек
Каналы : 6 каналов
Расположение каналов : Front: L C R, Side: L R, LFE
Частота : 48,0 КГц
Частота кадров : 31,250 кадров/сек (1536 spf)
Метод сжатия : С потерями
Задержка видео : -779 мс.
Размер потока : 55,3 Мбайт (5%)
Аудио #4
Идентификатор : 189 (0xBD)-131 (0x83)
Формат : AC-3
Формат/Информация : Audio Coding 3
Расширение режима : CM (complete main)
Параметр Endianness формата : Big
Режим смешивания : DVD-Video
Продолжительность : 17 м.
Вид битрейта : Постоянный
Битрейт : 448 Кбит/сек
Каналы : 6 каналов
Расположение каналов : Front: L C R, Side: L R, LFE
Частота : 48,0 КГц
Частота кадров : 31,250 кадров/сек (1536 spf)
Метод сжатия : С потерями
Задержка видео : -779 мс.
Размер потока : 55,3 Мбайт (5%)
Аудио #5
Идентификатор : 189 (0xBD)-132 (0x84)
Формат : AC-3
Формат/Информация : Audio Coding 3
Расширение режима : CM (complete main)
Параметр Endianness формата : Big
Режим смешивания : DVD-Video
Продолжительность : 17 м.
Вид битрейта : Постоянный
Битрейт : 448 Кбит/сек
Каналы : 6 каналов
Расположение каналов : Front: L C R, Side: L R, LFE
Частота : 48,0 КГц
Частота кадров : 31,250 кадров/сек (1536 spf)
Метод сжатия : С потерями
Задержка видео : -779 мс.
Размер потока : 55,2 Мбайт (5%)
Текст #1
Идентификатор : 189 (0xBD)-32 (0x20)
Формат : RLE
Формат/Информация : Run-length encoding
Режим смешивания : DVD-Video
Задержка видео : 2 с. 886 мс.
Текст #2
Идентификатор : 189 (0xBD)-33 (0x21)
Формат : RLE
Формат/Информация : Run-length encoding
Режим смешивания : DVD-Video
Задержка видео : 2 с. 253 мс.
Меню

Доп. информация:

Исходником послужил лицензионный DVD9 из-за рубежа. Французскую звуковую дорожку заменил на дубляж вместе с субтитрами. Испанскую звуковую дорогу заменил на авторскую от Есарева. Ради звуковой дорожки Яроцкого переделал меню выбора звука и субтитров взял его из предыдущего моего релиза.
Доп. материалы переведены русскими субтитрами.
Предупреждающие надписи скрыл.
Использовались программы: MKVExtractGUI2, PgcDemux, DVD ReMake Pro, Adobe PhotoShop, MuxMan, MaestroSBT, DVDSubEdit.

Скриншоты меню:

Скриншоты:

[Цитировать]



Показать сообщения:    

Текущее время: 19-Июн 05:22

Часовой пояс: UTC + 6


Вы не можете начинать темы
Вы не можете отвечать на сообщения
Вы не можете редактировать свои сообщения
Вы не можете удалять свои сообщения
Вы не можете голосовать в опросах
Вы не можете прикреплять файлы к сообщениям
Вы не можете скачивать файлы

!ВНИМАНИЕ!
Сайт не предоставляет электронные версии произведений, а занимается лишь коллекционированием и каталогизацией ссылок, присылаемых и публикуемых на форуме нашими читателями. Если вы являетесь правообладателем какого-либо представленного материала и не желаете, чтобы ссылка на него находилась в нашем каталоге, свяжитесь с нами, и мы незамедлительно удалим ее. Файлы для обмена на трекере предоставлены пользователями сайта, и администрация не несет ответственности за их содержание. Просьба не заливать файлы, защищенные авторскими правами, а также файлы нелегального содержания!