***Уважаемые пользователи и гости !!! Сайт переехал на новый домен Torrents-club.info. Просьба изменить ваши закладки! ***
 
[ Сегодня идет свободное скачивание без начисления Download ]


Статистика раздачи
Нет
 
   
 
 
 
 
На троих
Год выпуска: 2017
Жанр: Комедия
Страна: Украина
Выпущено: Студия «Dizel Show»
Режиссер: Евгения Евтушенко, Александр Тименко

Егор Крутоголов, Марина Поплавская, Александр Бережок, Виктория Булитко, Евгений Гашенко, Яна Глущенко, Евгений Сморигин, Олег Иваница

Герои нового сериала от Дизель Студио очень узнаваемы - это ваши друзья, соседи, врач из поликлиники, туристы, гаишники и милиционеры. Офисному планктону тоже достанется порция юмора. это очень смешнаые история из жизни. Авторы комедийного сериала уверяют что все будет предельно реалистично, ведь над проектом "На троих" работает хорошая команда. Так что будьте уверены телезрители у экранов обязательно от души повеселятся.....

Формат:AVI
Личная оценка: 8
Видео: XviD, ~ 1550 Кбит/с, 720x400
Аудио: AC3, 2 ch, 192 Кбит/с
Качество: WEB-DLRip
Продолжительность: x ~ 00:24:00
Язык: Русский

MediaInfo

Общее
Полное имя : D:\моё видио\Na.troich.3.2016.WEB-DLRip.Files-x\На троих.(55.seriya).2016.WEB-DLRip.Files-x.avi
Формат : AVI
Формат/Информация : Audio Video Interleave
Размер файла : 301 Мбайт
Продолжительность : 24 м.
Общий поток : 1721 Кбит/сек
Программа кодирования : VirtualDubMod 1.5.10.3 | www.virtualdub-fr.org || (build 2550/release)
Библиотека кодирования : VirtualDubMod build 2550/release
Видео
Идентификатор : 0
Формат : MPEG-4 Visual
Профиль формата : Advanced Simple@L5
Параметр BVOP формата : 1
Параметр QPel формата : Нет
Параметр GMC формата : Без точки перехода
Параметр матрицы формата : Выборочная
Идентификатор кодека : XVID
Идентификатор кодека/Подсказка : XviD
Продолжительность : 24 м.
Битрейт : 1519 Кбит/сек
Ширина : 720 пикселей
Высота : 400 пикселей
Соотношение сторон : 16:9
Частота кадров : 25,000 кадров/сек
Цветовое пространство : YUV
Субдискретизация насыщенности : 4:2:0
Битовая глубина : 8 бит
Тип развёртки : Прогрессивная
Метод сжатия : С потерями
Бит/(Пиксели*Кадры) : 0.211
Размер потока : 266 Мбайт (88%)
Библиотека кодирования : XviD 73
Аудио
Идентификатор : 1
Формат : AC-3
Формат/Информация : Audio Coding 3
Расширение режима : CM (complete main)
Параметр Endianness формата : Big
Идентификатор кодека : 2000
Продолжительность : 24 м.
Вид битрейта : Постоянный
Битрейт : 192 Кбит/сек
Каналы : 2 канала
Расположение каналов : Front: L R
Частота : 48,0 КГц
Битовая глубина : 16 бит
Метод сжатия : С потерями
Размер потока : 33,6 Мбайт (11%)
Выравнивание : Разделение по промежуткам
Продолжительность промежутка : 40 мс. (1,00 видеокадр)
Время предзагрузки промежутка : 500 мс.

Внимание! Раздача ведётся путём добавления новых серий!

Внимание! Раздача ведётся путём добавления новых серий; при каждом добавлении создfётся новый торрент. Чтобы начать докачку новой серии, пользователям необходимо сделать следующее: (1) остановить скачивание, (2) удалить старый торрент у себя из клиента (старые серии удалять не надо), (3) скачать новый торрент и запустить его у себя в клиенте вместо старого, при этом указать клиенту путь в старую папку куда и должно происходить скачивание новых серий.


Последний раз редактировалось: papa1951deda (2017-02-28 10:10), всего редактировалось 13 раз(а)

[Цитировать]

Добавлены 15-16 серии.

[Цитировать]

Топик был перенесен из форума Новинки отечественных сериалов в форум Отечественные сериалы
Dimasik79

Добавлены 17-18 серии.

[Цитировать]

Добавлены 19-20 серии.

[Цитировать]

Добавлены 21-22 серии.

[Цитировать]

Добавлены 24-28 серии.

[Цитировать]

Добавлены 29-30 серии.

[Цитировать]

Добавлены 31-32 серии.

[Цитировать]

Добавлены 33-34 серии.

[Цитировать]

Добавлены 35-38 серии.

[Цитировать]

Добавлены 39-40 серии.

[Цитировать]



Показать сообщения:    

Текущее время: 06-Май 13:22

Часовой пояс: UTC + 6


Вы не можете начинать темы
Вы не можете отвечать на сообщения
Вы не можете редактировать свои сообщения
Вы не можете удалять свои сообщения
Вы не можете голосовать в опросах
Вы не можете прикреплять файлы к сообщениям
Вы не можете скачивать файлы

!ВНИМАНИЕ!
Сайт не предоставляет электронные версии произведений, а занимается лишь коллекционированием и каталогизацией ссылок, присылаемых и публикуемых на форуме нашими читателями. Если вы являетесь правообладателем какого-либо представленного материала и не желаете, чтобы ссылка на него находилась в нашем каталоге, свяжитесь с нами, и мы незамедлительно удалим ее. Файлы для обмена на трекере предоставлены пользователями сайта, и администрация не несет ответственности за их содержание. Просьба не заливать файлы, защищенные авторскими правами, а также файлы нелегального содержания!