***Уважаемые пользователи и гости !!! Сайт переехал на новый домен Torrents-club.info. Просьба изменить ваши закладки! ***
 
[ Сегодня идет свободное скачивание без начисления Download ]


Статистика раздачи
Нет
 
   
 
 
 
 
Принц-медведь / Der Prinz im Bärenfell (2015) HDTV 1080i Информация о фильме
Название: Принц-медведь
Оригинальное название: Der Prinz im Bärenfell
Год выхода: 2015
Жанр: фэнтези, семейный
Режиссер: Бодо Фюрнайзен
В ролях: Максимилиан Бефорт, Мира Элиза Горес, Мирослав Немец, Вильфрид Хохгольдингер, Кристиан Грасхоф, Инга Буш, Киран Вест, Гвидо Фёрвайсер, Мориц Гаа
О фильме:
По мотивам одноимённой сказки братьев Гримм. Мариус - тщеславный принц, для которого ежедневные посещения личного парикмахера важнее поиска будущей невесты. Однажды он отправляется в лес. На небольшой поляне его внимание привлекает блестящая вещь, коей оказывается кольцо. Подойдя ближе, Мариус попадает в ловушку, выбраться из которой в одиночку невозможно. Вскоре появляется чёрт. Он предлагает принцу сделку: Мариус получает свободу, но взамен должен найти девушку, которая искренне полюбит его. Ещё одним условием является то, что пленник должен успеть сделать это до следующего равноденствия. В случае провала душа принца достанется лукавому. У Мариуса не остаётся другого выбора, кроме как согласиться. На миг он теряет сознание, а проснувшись, понимает, что нечистый не шутил, и к тому же усложнил ему задачу, сделав его похожим на медведя...

Производство: Германия / Askania Media Filmproduktion GmbH, ProSaar
Продолжительность: 00:58:57
Перевод: профессиональный (многоголосый закадровый) [Игмар]
Файл
Качество: HDTV 1080i
Формат: MPEG-TS
Видео: AVC, 1920x1080 (16:9), 25.000 fps, 8906 kbps, 0.172 bit/pixel
Аудио: русский, AC3 5.1, 48 kHz, 448 kbps

MediaInfo

Формат : MPEG-TS
Размер файла : 4,05 Гбайт
Продолжительность : 58 м.
Режим общего битрейта : Переменный
Общий поток : 9845 Кбит/сек
Видео
Идентификатор : 3031 (0xBD7)
Идентификатор меню : 122 (0x7A)
Формат : AVC
Формат/Информация : Advanced Video Codec
Профиль формата : Main@L4
Параметр CABAC формата : Да
Параметр ReFrames формата : 4 кадра
Параметр GOP формата : M=1, N=32
Идентификатор кодека : 27
Продолжительность : 58 м.
Битрейт : 8906 Кбит/сек
Ширина : 1920 пикселей
Высота : 1080 пикселей
Соотношение сторон : 16:9
Частота кадров : 25,000 кадров/сек
Цветовое пространство : YUV
Субдискретизация насыщенности : 4:2:0
Битовая глубина : 8 бит
Тип развёртки : Чересстрочная
Порядок развёртки : Верхнее поле первое
Бит/(Пиксели*Кадры) : 0.172
Размер потока : 3,67 Гбайт (90%)
Цветовой диапазон : Limited
Основные цвета : BT.709
Характеристики трансфера : BT.709
Коэффициенты матрицы : BT.709
Аудио
Идентификатор : 3033 (0xBD9)
Идентификатор меню : 122 (0x7A)
Формат : AC-3
Формат/Информация : Audio Coding 3
Расширение режима : CM (complete main)
Параметр Endianness формата : Big
Идентификатор кодека : 6
Продолжительность : 58 м.
Вид битрейта : Постоянный
Битрейт : 448 Кбит/сек
Каналы : 6 каналов
Расположение каналов : Front: L C R, Side: L R, LFE
Частота : 48,0 КГц
Метод сжатия : С потерями
Размер потока : 189 Мбайт (5%)
Язык : Russian

[Цитировать]



Показать сообщения:    

Текущее время: 07-Май 14:00

Часовой пояс: UTC + 6


Вы не можете начинать темы
Вы не можете отвечать на сообщения
Вы не можете редактировать свои сообщения
Вы не можете удалять свои сообщения
Вы не можете голосовать в опросах
Вы не можете прикреплять файлы к сообщениям
Вы не можете скачивать файлы

!ВНИМАНИЕ!
Сайт не предоставляет электронные версии произведений, а занимается лишь коллекционированием и каталогизацией ссылок, присылаемых и публикуемых на форуме нашими читателями. Если вы являетесь правообладателем какого-либо представленного материала и не желаете, чтобы ссылка на него находилась в нашем каталоге, свяжитесь с нами, и мы незамедлительно удалим ее. Файлы для обмена на трекере предоставлены пользователями сайта, и администрация не несет ответственности за их содержание. Просьба не заливать файлы, защищенные авторскими правами, а также файлы нелегального содержания!