***Уважаемые пользователи и гости !!! Сайт переехал на новый домен Torrents-club.info. Просьба изменить ваши закладки! ***
 
[ Сегодня идет свободное скачивание без начисления Download ]


Статистика раздачи
Нет
 
   
 
 
 
 
Шакал / The Jackal (1997) HDRip
«Он не оставляет свидетелей»
Страна: США, Великобритания, Франция, Германия, Япония
Год выпуска: 1997
Жанр: Боевик, триллер, криминал, приключения
Озвучивание: Профессиональный (многоголосый, закадровый) [R5]
Субтитры: Нет
Продолжительность: 02:04:28-Режиссер: Майкл Кейтон-Джонс-В ролях: Брюс Уиллис, Ричард Гир, Сидни Пуатье, Дайан Венора, Матильда Мэй, Дж.К. Симмонс, Ричард Лайнбэк, Джон Каннингэм, Джек Блэк, Тесс Харпер-Сюжет фильма: «Шакал» — это кличка. Под ней скрывается один из самых неуловимых преступников международного масштаба, наемный киллер, выполняющий самые сложные задания тех «работодателей», кто способен заплатить немалые деньги. После того, как в московском ночном клубе прошла совместная операция американских спецслужб и российской милиции, был убит один из главарей русской мафии, брат покойного обратился к Шакалу и сделал «заказ».
Информация об этом просочилась в ФБР. Стало ясно, что целью киллера является кто-то «на самом верху» Белого дома. Чтобы остановить Шакала, американцы выпускают из тюрьмы ирландского террориста Деклана Малкуина, у которого свои счеты с Шакалом и который — единственный! — знает наемного убийцу в лицо…- -Формат: AVI
Качество: HDRip-Видео: кодек: XviD, размер кадра: 720x304, битрейт: 1 211 Кбит/сек frame rate: 23.976 кадра/сек
Аудио:язык: Русский, кодек: AC-3, число каналов: 6 каналов, битрейт: 448 кб/с [P MVO] -

MI

General
Complete name                  : Shakal.1997.HDRip.1.45Gb[mgt].avi
Format                         : AVI
Format/Info                    : Audio Video Interleave
File size                      : 1.45 GiB
Duration                       : 2h 4mn
Overall bit rate               : 1 668 Kbps
Writing application            : VirtualDubMod 1.5.10.3 | www.virtualdub-fr.org || (build 2550/release)
Writing library                : VirtualDubMod build 2550/release
Video
ID                             : 0
Format                         : MPEG-4 Visual
Format profile                 : Advanced Simple@L5
Format settings, BVOP          : 1
Format settings, QPel          : No
Format settings, GMC           : No warppoints
Format settings, Matrix        : Custom
Codec ID                       : XVID
Codec ID/Hint                  : XviD
Duration                       : 2h 4mn
Bit rate                       : 1 211 Kbps
Width                          : 720 pixels
Height                         : 304 pixels
Display aspect ratio           : 2.35:1
Frame rate                     : 23.976 (23976/1000) fps
Color space                    : YUV
Chroma subsampling             : 4:2:0
Bit depth                      : 8 bits
Scan type                      : Progressive
Compression mode               : Lossy
Bits/(Pixel*Frame)             : 0.231
Stream size                    : 1.05 GiB (73%)
Writing library                : XviD 73
Audio
ID                             : 1
Format                         : AC-3
Format/Info                    : Audio Coding 3
Mode extension                 : CM (complete main)
Format settings, Endianness    : Big
Codec ID                       : 2000
Duration                       : 2h 4mn
Bit rate mode                  : Constant
Bit rate                       : 448 Kbps
Channel(s)                     : 6 channels
Channel positions              : Front: L C R, Side: L R, LFE
Sampling rate                  : 48.0 KHz
Frame rate                     : 31.250 fps (1536 spf)
Compression mode               : Lossy
Stream size                    : 399 MiB (27%)
Alignment                      : Split accross interleaves
Interleave, duration           : 42 ms (1.00 video frame)
Interleave, preload duration   : 500 ms

Скриншоты





[Цитировать]



Показать сообщения:    

Текущее время: 06-Май 13:44

Часовой пояс: UTC + 6


Вы не можете начинать темы
Вы не можете отвечать на сообщения
Вы не можете редактировать свои сообщения
Вы не можете удалять свои сообщения
Вы не можете голосовать в опросах
Вы не можете прикреплять файлы к сообщениям
Вы не можете скачивать файлы

!ВНИМАНИЕ!
Сайт не предоставляет электронные версии произведений, а занимается лишь коллекционированием и каталогизацией ссылок, присылаемых и публикуемых на форуме нашими читателями. Если вы являетесь правообладателем какого-либо представленного материала и не желаете, чтобы ссылка на него находилась в нашем каталоге, свяжитесь с нами, и мы незамедлительно удалим ее. Файлы для обмена на трекере предоставлены пользователями сайта, и администрация не несет ответственности за их содержание. Просьба не заливать файлы, защищенные авторскими правами, а также файлы нелегального содержания!